<?xml version="1.0" standalone="no"?>
<!DOCTYPE svg PUBLIC "-//W3C//DTD SVG 1.1//EN" "http://www.w3.org/Graphics/SVG/1.1/DTD/svg11.dtd" >
<svg xmlns="http://www.w3.org/2000/svg" xmlns:xlink="http://www.w3.org/1999/xlink" version="1.1">
<metadata>
Created by FontForge 20200427 at Sat Oct  5 04:07:16 2019
 By www
Copyright 2018 by URW Type Foundry GmbH
</metadata>
<defs>
<font id="OldFenris-Regular" horiz-adv-x="550" >
  <font-face 
    font-family="Old Fenris"
    font-weight="400"
    font-stretch="normal"
    units-per-em="1000"
    panose-1="0 0 5 0 0 0 0 0 0 0"
    ascent="832"
    descent="-168"
    x-height="413"
    cap-height="684"
    bbox="-98 -293 1476 1102"
    underline-thickness="90"
    underline-position="-146"
    unicode-range="U+0020-FB04"
  />
<missing-glyph horiz-adv-x="649" 
d="M65 0v666h519v-666h-519zM519 65v536h-389v-536h389z" />
    <glyph glyph-name="ff" unicode="ff" horiz-adv-x="643" 
d="M398 155q0 -21 -1 -37q0 -3 -1 -11q-3 -47 -11 -69q-2 -7 -34 -10q-3 -1 -6 -1h-2q-13 -2 -13 -14v-6q-1 -6 -1 -8q0 -6 52 -5q4 1 5 1h51h49q44 0 88 8q14 2 14 10q0 2 -1 7q-1 6 -1 10q0 10 -11 10q-3 0 -11 1h-11h-7h-7q-8 0 -11 1q-8 3 -10 6q-1 3 -4 5
q-12 14 -14 36q0 12 3 27t3 32q-4 110 -8 166q0 18 5 27q8 12 30 12q17 0 53 4q9 1 13 1q31 3 31 16q0 10 -6 15q-3 2 -4 4t-2 8q-2 8 -7 11q-6 4 -17 4h-4h-3h-13h-12q-52 0 -52 26q0 6 1 19q1 7 2 22v13q0 6 4 13q2 4 2 8q1 6 1 19q0 18 1 28q1 6 5 22q3 12 4 19
q6 43 43 43q11 0 21 -3q8 -3 26 -15q24 -16 34 -16q21 0 29 15l6 9q14 25 14 36q0 53 -64 53q-68 0 -113 -32q-53 -39 -78 -83q-46 -81 -50 -137v-7q0 -6 1 -20v-17v-10q-2 -20 -47 -20h-13q-21 1 -37 1q-18 0 -39 -2h-10h-3q-7 1 -21 1h-2q-13 0 -16 3q-7 6 -7 40q0 9 1 17
q1 6 -2 8q-3 3 -3 8v2q0 7 4 13q2 4 2 8q1 7 1 19q0 19 1 28q1 6 4 19q3 15 4 22q6 43 44 43q11 0 21 -3q8 -3 26 -15q20 -13 34 -13h1q25 0 32 14q1 3 5 10q11 22 11 33q0 21 -9 33q-1 2 -10 5q-5 1 -7 2q-16 13 -38 13q-68 0 -113 -32q-48 -35 -84.5 -94t-36.5 -102v-7
q1 -9 1 -19q0 -36 -11 -54q-4 -6 -20 -8q-9 -1 -15 -3q-1 0 -6 -2q-15 -4 -15 -20v-2q0 -5 21 -9q4 -1 7 -2t11 -2q28 -4 28 -26q0 -9 2 -29q1 -17 1 -26q0 -5 -3 -9q-4 -5 -4 -15q0 -9 2 -31q1 -18 1 -27v-19v-17q0 -21 -1 -37q0 -3 -1 -11q-3 -47 -11 -69q-2 -7 -34 -10
q-4 -1 -6 -1h-3h-2q-11 0 -11 -11v-8v-9q0 -6 52 -5l4 1h52h49q44 0 88 8q14 2 14 10q0 2 -1 7q-1 6 -1 10q0 10 -11 10q-3 0 -11 1h-11h-7h-7q-8 0 -11 1q-8 3 -10 6t-4 5q-13 14 -14 36q0 12 3 27t3 32q-4 110 -8 166q0 18 5 27q9 14 31 14q8 0 27 -1h24h16q23 3 48 3
q56 0 56 -29q0 -9 2 -29q1 -17 1 -26q0 -5 -3 -9q-4 -5 -4 -15q0 -9 2 -31q1 -18 1 -27v-19v-17z" />
    <glyph glyph-name="fi" unicode="fi" horiz-adv-x="600" 
d="M324 726q-62 0 -107 -32q-49 -36 -75 -82q-46 -81 -50 -137q-1 -6 -1 -21q-2 -40 -9 -52q-4 -6 -20 -8q-9 -1 -15 -3q-1 0 -6 -2q-16 -4 -15 -22q0 -5 21 -9q4 -1 7 -2t11 -2q28 -4 28 -26q0 -9 2 -29q1 -17 1 -26q0 -5 -3 -9q-4 -5 -4 -15q0 -9 2 -31q1 -18 1 -27v-19
q0 -35 -1 -54q0 -3 -1 -11q-3 -47 -11 -69q-2 -7 -34 -10q-4 -1 -6 -1h-3q-12 -2 -12 -14v-6q-1 -6 -1 -8q0 -4 11 -4q29 -1 93 0h53q44 0 88 8q14 2 14 10q0 2 -1 7q-1 6 -1 10q0 10 -11 10q-3 0 -11 1h-11h-7q-14 0 -18 1q-8 3 -10 6t-4 5q-13 14 -14 36q0 12 3 27t3 32
q-4 110 -8 166q0 18 5 27q8 12 30 12q17 0 53 4q9 1 13 1q31 3 31 16q0 10 -6 15q-3 2 -4 4t-2 8q-2 8 -7 11q-7 4 -21 4h-3h-12q-17 -1 -25 0q-30 3 -35 8q-7 7 -4 37q1 7 1 22q1 8 1 13q0 6 3 13q3 4 3 8q0 6 1 19q0 18 1 28q1 8 4 26q1 9 2 14q5 37 33 36q3 0 12 1
q12 0 17 -1q2 -1 9 -3q12 -4 19 -8q2 -1 8 -6q10 -7 19 -7q23 0 32 15q16 29 16 45q0 27 -9 36q-13 14 -53 14zM533 36q-14 0 -21 9q-7 8 -9 29q-1 17 5 51q3 17 4 26q1 5 3 17q3 16 3 24q0 7 -2 12q-7 18 -7 49q1 10 2 30q3 36 -1 45q-2 5 -1 10q2 9 2 19v18q-1 4 -1 5
q0 6 -1 13q-2 8 -1 11q4 11 -4 18q-4 4 -17 4q-29 0 -59 -12t-57 -30q-12 -9 -12 -15q0 -8 7 -18q4 -5 16 -5q14 0 18 -4q5 -5 3 -30q-2 -16 -1 -21q8 -30 6 -98q-1 -15 -1 -25q0 -32 -2 -49q-1 -44 -13 -65q-1 -3 -2 -9q-1 -8 -8 -11q-1 -1 -4 -2q-12 -6 -22 -8
q-14 -2 -14 -14q0 -20 5 -20q4 0 13 1q8 1 12 1q49 0 146 5q24 1 36 2q18 0 18 10q0 2 2 9q2 10 2 13t-4 5q-3 1 -11 1h-6t-12 -1h-10zM512 531q14 17 14 49q0 19 -26 25q-7 2 -25 9q-17 7 -24 7q-13 0 -28 -10q-22 -14 -26 -38q-1 -2 -2 -8q-4 -18 3 -28q8 -15 21 -19
q15 -5 48 -5q30 0 45 18z" />
    <glyph glyph-name="uniFB02" unicode="fl" horiz-adv-x="597" 
d="M404 562q1 -16 4 -49q6 -57 4 -94q0 -8 -1 -28q-1 -16 -1 -24q0 -13 -4 -25q-2 -7 2 -24q5 -21 1 -73q-2 -22 -1 -36q1 -20 -2 -69q-2 -29 -2 -46v-7q1 -19 -2 -28q-8 -26 -38 -31q-13 -1 -18 -6q-3 -3 -3 -15v-2q0 -8 4 -10t8 -2t22 1q15 1 18 1q31 0 88 3q46 3 77 3
q13 0 13 11t-2 23q-1 6 -9 6q-3 0 -10 -1q-8 -2 -13 -2q-16 0 -23 10l-2 2q-4 5 -4 29v7q0 10 -2 21q-1 6 -1 9q0 13 1 45q2 41 2 66v114v26q0 48 1 73q1 18 4 58q4 41 4 59q0 3 -2 8q-1 4 -1 7q0 18 -1 55v49v19q0 16 -31 15h-4q-20 0 -65 -17q-16 -6 -19 -6q-6 0 -16 5
q-5 2 -7 3q-7 2 -22 8q-19 9 -39 9q-68 0 -92 -17q-53 -39 -78 -83q-46 -81 -50 -137q-1 -6 -1 -21q-2 -40 -9 -52q-4 -6 -20 -8q-9 -1 -15 -3q-1 0 -6 -2q-16 -4 -15 -22q0 -5 21 -9q4 -1 7 -2t11 -2q28 -4 28 -26q0 -9 2 -29q1 -17 1 -26q0 -5 -3 -9q-4 -5 -4 -15
q0 -9 2 -31q1 -18 1 -27v-19q0 -35 -1 -54q0 -3 -1 -11q-3 -47 -11 -69q-2 -7 -34 -10q-4 -1 -6 -1h-3q-12 -2 -12 -14v-6q-1 -6 -1 -8q0 -4 11 -4q29 -1 93 0h53q44 0 88 8q14 2 14 10q0 2 -1 7q-1 6 -1 10q0 10 -11 10q-3 0 -11 1h-11h-7q-14 0 -18 1q-8 3 -10 6t-4 5
q-13 14 -14 36q0 12 3 27t3 32q-4 110 -8 166q0 18 5 27q8 12 30 12q17 0 53 4q9 1 13 1q31 3 31 16q0 10 -6 15q-3 2 -4 4t-2 8q-2 8 -7 11q-7 4 -21 4h-3h-12q-17 -1 -25 0q-30 3 -35 8q-7 7 -4 37q1 7 1 22q1 8 1 13q0 6 3 13q3 4 3 8q0 6 1 19q0 18 1 28q0 1 1 6
q5 34 12 44q25 34 62 34q29 0 44 -15q3 -2 4 -3q13 -5 29 -24q4 -4 10 -12q7 -10 12 -14q1 -1 5 -3q9 -5 10 -15z" />
    <glyph glyph-name="ffl" unicode="ffl" horiz-adv-x="904" 
d="M361 356q39 -2 39 -28q0 -9 2 -29q1 -17 1 -26q0 -5 -3 -9q-4 -5 -4 -15q0 -9 2 -31q1 -18 1 -27v-19q0 -35 -1 -54q0 -3 -1 -11q-3 -47 -11 -69q-2 -7 -34 -10q-4 -1 -6 -1h-3q-12 -2 -12 -14v-6q-1 -6 -1 -8q0 -4 11 -4q29 -1 93 0h53q44 0 88 8q14 2 14 10q0 2 -1 7
q-1 6 -1 10q0 10 -11 10q-3 0 -11 1h-11h-7q-14 0 -18 1q-8 3 -10 6t-4 5q-13 14 -14 36q0 12 3 27t3 32q-4 110 -8 166q0 18 5 27q8 12 30 12q17 0 53 4q9 1 13 1q31 3 31 16q0 10 -6 15q-3 2 -4 4t-2 8q-2 8 -7 11q-7 4 -21 4h-3h-12q-17 -1 -25 0q-30 3 -35 8q-7 7 -4 37
q1 7 1 22q1 8 1 13q0 6 3 13q3 4 3 8q0 6 1 19q0 18 1 28q0 1 1 6q5 34 12 44q25 34 62 34q29 0 44 -15q3 -2 4 -3q13 -5 29 -24q4 -4 10 -12q7 -10 12 -14q1 -1 5 -3q9 -5 10 -15q1 -16 4 -49q6 -57 4 -94q0 -8 -1 -28q-1 -16 -1 -24q0 -13 -4 -25q-2 -7 2 -24q5 -21 1 -73
q-2 -22 -1 -36q1 -20 -2 -69q-2 -29 -2 -46v-7q1 -19 -2 -28q-8 -26 -38 -31q-13 -1 -18 -6q-3 -3 -3 -15v-2q0 -8 4 -10t8 -2t22 1q15 1 18 1q31 0 88 3q46 3 77 3q13 0 13 11t-2 23q-1 6 -9 6q-3 0 -10 -1q-8 -2 -13 -2q-16 0 -23 10l-2 2q-4 5 -4 29v7q0 10 -2 21
q-1 6 -1 9q0 13 1 45q2 41 2 66v114v26q0 48 1 73q1 18 4 58q4 41 4 59q0 3 -2 8q-1 4 -1 7q0 18 -1 55v49v19q0 16 -31 15h-4q-20 0 -65 -17q-16 -6 -19 -6q-6 0 -16 5q-5 2 -7 3q-7 2 -22 8q-19 9 -39 9q-68 0 -92 -17q-53 -39 -78 -83q-46 -81 -50 -137q-1 -8 0 -24
q0 -30 -6 -41q-6 -9 -37 -9h-3h-14q-21 1 -37 1q-18 0 -39 -2h-10h-3q-7 1 -21 1h-2q-13 0 -16 3q-7 6 -7 40q0 9 1 17q1 6 -2 8q-3 3 -3 8v2q0 7 4 13q2 4 2 8q1 7 1 19q0 19 1 28q1 6 4 19q3 15 4 22q6 43 44 43q11 0 21 -3q8 -3 26 -15q20 -13 34 -13h1q25 0 32 14
q1 3 5 10q11 22 11 33q0 21 -9 33q-1 2 -10 5q-5 1 -7 2q-16 13 -38 13q-68 0 -113 -32q-48 -35 -84.5 -94t-36.5 -102v-7q1 -9 1 -19q0 -36 -11 -54q-4 -6 -20 -8q-9 -1 -15 -3q-1 0 -6 -2q-15 -4 -15 -20v-2q0 -5 21 -9q4 -1 7 -2t11 -2q28 -4 28 -26q0 -9 2 -29
q1 -17 1 -26q0 -5 -3 -9q-4 -5 -4 -15q0 -9 2 -31q1 -18 1 -27v-19v-17q0 -21 -1 -37q0 -3 -1 -11q-3 -47 -11 -69q-2 -7 -34 -10q-4 -1 -6 -1h-3h-2q-11 0 -11 -11v-8v-9q0 -6 52 -5l4 1h52h49q44 0 88 8q14 2 14 10q0 2 -1 7q-1 6 -1 10q0 10 -11 10q-3 0 -11 1h-11h-7h-7
q-8 0 -11 1q-8 3 -10 6t-4 5q-13 14 -14 36q0 12 3 27t3 32q-4 110 -8 166q0 18 5 27q9 14 31 14q8 0 27 -1h24h16q32 3 66 2z" />
    <glyph glyph-name="f_f_b" unicode="ffb" horiz-adv-x="1187" 
d="M339 401q-9 0 -24 1h-13q-18 0 -39 -2h-10h-3q-7 1 -21 1h-2q-13 0 -16 3q-7 6 -7 40q0 9 1 17q1 6 -2 8q-3 3 -3 8v2q0 7 4 13q2 4 2 8q1 7 1 19q0 19 1 28q1 6 4 19q3 15 4 22q6 43 44 43q11 0 21 -3q8 -3 26 -15q20 -13 34 -13h1q25 0 32 14q1 3 5 10q11 22 11 33
q0 21 -9 33q-1 2 -10 5q-5 1 -7 2q-16 13 -38 13q-68 0 -113 -32q-48 -35 -84.5 -94t-36.5 -102v-7q1 -9 1 -19q0 -36 -11 -54q-4 -6 -20 -8q-9 -1 -15 -3q-1 0 -6 -2q-15 -4 -15 -20v-2q0 -5 21 -9q4 -1 7 -2t11 -2q28 -4 28 -26q0 -9 2 -29q1 -17 1 -26q0 -5 -3 -9
q-4 -5 -4 -15q0 -9 2 -31q1 -18 1 -27v-19v-17q0 -21 -1 -37q0 -3 -1 -11q-3 -47 -11 -69q-2 -7 -34 -10q-4 -1 -6 -1h-3h-2q-11 0 -11 -11v-8v-9q0 -6 52 -5l4 1h52h49q44 0 88 8q14 2 14 10q0 2 -1 7q-1 6 -1 10q0 10 -11 10q-3 0 -11 -1h-11q-2 0 -7 1t-7 1q-8 0 -11 1
q-8 3 -10 6t-4 5q-13 14 -14 36q0 12 3 27t3 32q-4 110 -8 166q0 18 5 27q9 14 31 14q8 0 27 -1h24h16q19 2 30 3q13 1 21 1q13 0 19 -2q4 -1 13 -2q8 -1 13 -3q13 -5 13 -23q0 -9 2 -29q1 -17 1 -26q0 -5 -3 -9q-4 -5 -4 -15q0 -9 2 -31q1 -18 1 -27q0 -6 1 -19
q0 -35 -2 -54v-11q-4 -47 -12 -69q-2 -7 -33 -10q-4 -1 -7 -1h-2q-13 -2 -13 -14v-6q-1 -6 -1 -8q0 -4 11 -4q30 -1 94 0h52q44 0 88 8q14 2 14 10v7q-2 6 -2 10q0 10 -11 10q-3 0 -10 1h-12h-7q-14 0 -18 1q-8 3 -10 6q-1 3 -4 5q-12 14 -14 36q0 12 3 27t3 32
q-3 110 -8 166q0 18 5 27q8 12 30 12q18 0 54 4q8 1 12 1q31 3 31 16q0 10 -6 15l-4 4q0 2 -2 8q-2 8 -7 11q-6 4 -20 4h-4h-12q-16 -1 -25 0q-30 3 -35 8q-6 7 -4 37q2 7 2 22v13q0 6 4 13q2 4 2 8q1 6 1 19q0 18 1 28q1 1 1 6q5 34 13 44q24 34 61 34q29 0 45 -15
q2 -2 4 -3q13 -5 29 -24q4 -4 9 -12q7 -10 13 -14q27 -21 22 -64q-9 -85 3 -210q1 -4 2 -13q4 -17 0 -24q-12 -28 -8 -90q1 -21 0 -33q0 -8 -2 -19q-2 -8 -2 -14q0 -9 4 -29q3 -16 3 -24q1 -9 -1 -30q-2 -12 -2 -19q0 -8 5 -13q4 -4 9 -4q3 0 10 2q5 2 7 2q4 0 30 -4
q21 -3 25 -3q5 0 9 -1t14 0q17 1 25 -1q9 -2 23 -2q89 0 137 20q60 25 106 94q36 56 36 124q0 61 -35 118q-57 93 -139 93q-13 0 -38 -7q-20 -5 -33 -5q-12 0 -31 -8q-13 -5 -26 -5q-10 0 -14 4q-3 3 -4 33q-1 4 -1 7q-1 19 -2 37q-1 14 -2 26q-1 14 -1 39q0 1 -1 8
q-2 12 -2 18v13v32q-1 32 -1 48v19q0 16 -31 15h-4q-19 0 -65 -17q-16 -6 -19 -6q-5 0 -15 5q-5 2 -8 3q-7 2 -21 8q-20 9 -39 9q-69 0 -93 -17q-53 -39 -78 -83q-46 -81 -50 -137q0 -6 -1 -21q-1 -40 -9 -52q-3 -7 -11 -4q-7 1 -13 2q-17 1 -30 1zM972 48q-21 -20 -54 -20
q-45 0 -64 47q-9 22 -15 59q-3 21 -6 33q-1 5 4 12q4 5 2 12q-1 7 -6 27q-8 32 -7 54q2 26 13 49q4 8 5 22q1 10 4 14q9 11 42 11h3q29 0 61 -18q45 -25 63 -79q2 -6 7 -17q16 -46 16 -71q0 -70 -44 -120q-4 -5 -14 -9q-6 -2 -10 -6z" />
    <glyph glyph-name="f_f_h" unicode="ffh" horiz-adv-x="1198" 
d="M339 401q-15 1 -37 1q-18 0 -39 -2h-10h-3q-7 1 -21 1h-2q-13 0 -16 3q-7 6 -7 40q0 9 1 17q1 6 -2 8q-3 3 -3 8v2q0 7 4 13q2 4 2 8q1 7 1 19q0 19 1 28q1 6 4 19q3 15 4 22q6 43 44 43q11 0 21 -3q8 -3 26 -15q20 -13 34 -13h1q25 0 32 14q1 3 5 10q11 22 11 33
q0 21 -9 33q-1 2 -10 5q-5 1 -7 2q-16 13 -38 13q-68 0 -113 -32q-48 -35 -84.5 -94t-36.5 -102v-7q1 -9 1 -19q0 -36 -11 -54q-4 -6 -20 -8q-9 -1 -15 -3q-1 0 -6 -2q-15 -4 -15 -20v-2q0 -5 21 -9q4 -1 7 -2t11 -2q28 -4 28 -26q0 -9 2 -29q1 -17 1 -26q0 -5 -3 -9
q-4 -5 -4 -15q0 -9 2 -31q1 -18 1 -27v-19v-17q0 -21 -1 -37q0 -3 -1 -11q-3 -47 -11 -69q-2 -7 -34 -10q-4 -1 -6 -1h-3h-2q-11 0 -11 -11v-8v-9q0 -6 52 -5l4 1h52h49q44 0 88 8q14 2 14 10q0 2 -1 7q-1 6 -1 10q0 10 -11 10q-3 0 -11 -1h-11q-2 0 -7 1t-7 1q-8 0 -11 1
q-8 3 -10 6t-4 5q-13 14 -14 36q0 12 3 27t3 32q-4 110 -8 166q0 18 5 27q9 14 31 14q8 0 27 -1h24h16q17 2 29 3t20 1q15 0 21 -2q4 -1 11 -2q28 -4 28 -26q0 -9 2 -29q1 -17 1 -26q0 -5 -3 -9q-4 -5 -4 -15q0 -9 2 -31q1 -18 1 -27q0 -6 1 -19q0 -35 -2 -54v-11
q-4 -47 -12 -69q-2 -7 -33 -10q-4 -1 -7 -1h-2q-13 -2 -13 -14v-6q-1 -6 -1 -8q0 -4 11 -4q30 -1 94 0h52q44 0 88 8q14 2 14 10v7q-2 6 -2 10q0 10 -11 10q-3 0 -10 1h-12h-7q-14 0 -18 1q-8 3 -10 6q-1 3 -4 5q-12 14 -14 36q0 12 3 27t3 32q-3 110 -8 166q0 18 5 27
q8 12 30 12q18 0 54 4q8 1 12 1q31 3 31 16q0 10 -6 15l-4 4q0 2 -2 8q-2 8 -7 11q-6 4 -20 4h-4h-12q-16 -1 -25 0q-30 3 -35 8q-6 7 -4 37q2 7 2 22v13q0 6 4 13q2 4 2 8q1 6 1 19q0 18 1 28q1 1 1 6q5 34 13 44q24 34 61 34q29 0 45 -15q2 -2 4 -3q13 -5 29 -24
q4 -4 9 -12q7 -10 13 -14q1 -1 4 -3q10 -5 11 -15q5 -39 4 -63q-5 -103 -5 -301q0 -47 6 -94q5 -28 -9 -52q-4 -7 -17 -17q-2 -1 -3 -2q-5 -4 -22 -9h-2q-11 -3 -11 -18q0 -7 3 -8q8 -2 18 -2q26 0 44 2q14 2 41 2q11 0 29 -2q10 -1 17 -1q4 0 8 1q2 1 4 1q13 0 29 -1h5
q25 0 25 24q0 21 -19 21q-34 1 -34 39v51v20v41q0 2 2 8t2 10q0 6 1 25q0 32 4 51q6 29 27 46q24 18 67 18q19 0 37.5 -19t24.5 -44q3 -15 3 -29q1 -24 1 -72q0 -71 1 -107q0 -30 -10 -39q-12 -12 -30 -12q-25 -1 -25 -27q0 -10 31 -10t75 2q36 2 65 2q13 0 38 1h12
q10 0 14 3q5 4 5 16q0 11 -3 15q-2 3 -10 3q-2 1 -4 1l-18 2q-2 0 -6 1q-8 1 -13 6q-6 6 -6 22q0 20 -6 54q-5 29 -6 49q0 13 3 25q5 25 5 64q0 45 -20 90q-14 31 -29 40q-46 29 -97 29q-19 0 -59 -8q-19 -4 -35 -12q-5 -2 -8 -3l-9 -6q-9 -5 -13 -5q-6 0 -6 15q-1 17 -3 42
q-4 42 0 82q2 19 -1 44q-1 4 -1 5v55q-1 31 -1 49v19q0 16 -31 15h-4q-19 0 -65 -17q-16 -6 -19 -6q-5 0 -15 5q-5 2 -8 3q-7 2 -21 8q-20 9 -39 9q-69 0 -93 -17q-53 -39 -78 -83q-46 -81 -50 -137v-25q-1 -31 -9 -41q-5 -7 -22 -8h-5q-17 -1 -28 0z" />
    <glyph glyph-name="f_f_f" unicode="fff" horiz-adv-x="1073" 
d="M677 354q2 0 6 -1q26 -6 26 -25q0 -9 2 -29q1 -17 1 -26q0 -5 -3 -9q-4 -5 -4 -15q0 -9 2 -31q1 -18 1 -27v-19q1 -35 -1 -54v-11q-4 -47 -12 -69q-2 -7 -33 -10q-4 -1 -7 -1h-2q-13 -2 -13 -14v-6q-1 -6 -1 -8q0 -4 11 -4q30 -1 94 0h52q44 0 88 8q14 2 14 10q0 2 -1 7
q-1 6 -1 10q0 10 -11 10q-3 0 -11 1h-11h-7q-14 0 -18 1q-8 3 -10 6q-1 3 -4 5q-12 14 -14 36q0 12 3 27t3 32q-4 110 -8 166q0 18 5 27q8 12 30 12q18 0 54 4q8 1 12 1q31 3 31 16q0 10 -6 15q-3 2 -4 4t-2 8q-2 8 -7 11q-7 4 -20 4h-4h-12q-17 -1 -25 0q-30 3 -35 8
q-7 7 -4 37q2 7 2 22v13q0 6 4 13q2 4 2 8q1 6 1 19q0 18 1 28q1 6 5 22q3 12 4 19q6 43 43 43q11 0 21 -3q8 -3 26 -15q24 -16 34 -16q21 0 29 15l6 9q14 25 14 36q0 53 -64 53q-68 0 -113 -32q-53 -39 -78 -83q-46 -81 -50 -137v-23q1 -15 -6 -25q-3 -6 -23 -7
q-7 -1 -21 -2q-13 -2 -17 -2h-3h-3q-4 0 -20 2q-13 1 -17 1h-11q-77 -2 -77 23q0 6 1 19q1 7 2 22v13q0 6 4 13q2 4 2 8q1 6 1 19q0 18 1 28q1 6 5 22q3 12 4 19q6 43 43 43q11 0 21 -3q8 -3 26 -15q24 -16 34 -16q21 0 29 15l6 9q14 25 14 36q0 53 -64 53q-68 0 -113 -32
q-53 -39 -78 -83q-46 -81 -50 -137v-7q0 -6 1 -20v-17v-10q-2 -20 -47 -20h-13q-21 1 -37 1q-18 0 -39 -2h-10h-3q-7 1 -21 1h-2q-13 0 -16 3q-7 6 -7 40q0 9 1 17q1 6 -2 8q-3 3 -3 8v2q0 7 4 13q2 4 2 8q1 7 1 19q0 19 1 28q1 6 4 19q3 15 4 22q6 43 44 43q11 0 21 -3
q8 -3 26 -15q20 -13 34 -13h1q25 0 32 14q1 3 5 10q11 22 11 33q0 21 -9 33q-1 2 -10 5q-5 1 -7 2q-16 13 -38 13q-68 0 -113 -32q-48 -35 -84.5 -94t-36.5 -102v-7q1 -9 1 -19q0 -36 -11 -54q-4 -6 -20 -8q-9 -1 -15 -3q-1 0 -6 -2q-15 -4 -15 -20v-2q0 -5 21 -9q4 -1 7 -2
t11 -2q28 -4 28 -26q0 -9 2 -29q1 -17 1 -26q0 -5 -3 -9q-4 -5 -4 -15q0 -9 2 -31q1 -18 1 -27v-19v-17q0 -21 -1 -37q0 -3 -1 -11q-3 -47 -11 -69q-2 -7 -34 -10q-4 -1 -6 -1h-3h-2q-11 0 -11 -11v-8v-9q0 -6 52 -5l4 1h52h49q44 0 88 8q14 2 14 10q0 2 -1 7q-1 6 -1 10
q0 10 -11 10q-3 0 -11 1h-11h-7h-7q-8 0 -11 1q-8 3 -10 6t-4 5q-13 14 -14 36q0 12 3 27t3 32q-4 110 -8 166q0 18 5 27q9 14 31 14q8 0 27 -1h24h16q23 3 48 3q56 0 56 -29q0 -9 2 -29q1 -17 1 -26q0 -5 -3 -9q-4 -5 -4 -15q0 -9 2 -31q1 -18 1 -27v-19v-17q0 -21 -1 -37
q0 -3 -1 -11q-3 -47 -11 -69q-2 -7 -34 -10q-3 -1 -6 -1h-2q-13 -2 -13 -14v-6q-1 -6 -1 -8q0 -6 52 -5q4 1 5 1h51h49q44 0 88 8q14 2 14 10q0 2 -1 7q-1 6 -1 10q0 10 -11 10q-3 0 -11 1h-11h-7h-7q-8 0 -11 1q-8 3 -10 6q-1 3 -4 5q-12 14 -14 36q0 12 3 27t3 32
q-4 110 -8 166q0 18 5 27q8 12 30 12q61 0 114 5q12 1 30 -4z" />
    <glyph glyph-name="f_h" unicode="fh" horiz-adv-x="886" 
d="M409 499q-5 -103 -5 -301q0 -47 6 -94q4 -28 -9 -52q-4 -7 -17 -17q-2 -1 -3 -2q-6 -4 -23 -9h-1q-11 -3 -11 -18q0 -7 3 -8q8 -2 18 -2q26 0 43 2q15 2 42 2q10 0 29 -2q10 -1 17 -1q3 0 7 1q3 1 5 1q13 0 29 -1h5q25 0 25 24q0 21 -19 21q-34 1 -34 39v51v20
q-1 27 0 41q0 2 2 8t2 10v25q0 32 5 51q6 29 27 46q24 18 67 18q19 0 37.5 -19t24.5 -44q3 -15 3 -29v-72q1 -71 2 -107q0 -30 -10 -39q-12 -12 -30 -12q-25 -1 -25 -27q0 -10 31 -10q30 0 74 2q37 2 66 2q13 0 38 1h12q10 0 14 3q5 4 5 16q0 11 -3 15q-2 3 -10 3q-3 1 -4 1
l-18 2q-2 0 -7 1q-8 1 -12 6q-6 6 -6 22q0 20 -6 54q-6 29 -6 49q0 13 3 25q5 25 5 64q0 45 -20 90q-15 31 -29 40q-47 29 -97 29q-19 0 -59 -8q-19 -4 -36 -12q-4 -2 -7 -3q-4 -2 -10 -6q-8 -5 -12 -5q-6 0 -6 15q-1 17 -4 42q-4 42 0 82q3 19 -1 44v5q0 18 -1 55v49v19
q0 16 -31 15h-4q-20 0 -65 -17q-16 -6 -19 -6q-6 0 -16 5q-5 2 -7 3q-7 2 -22 8q-19 9 -39 9q-68 0 -92 -17q-53 -39 -78 -83q-46 -81 -50 -137q-1 -6 -1 -21q-2 -40 -9 -52q-4 -6 -20 -8q-9 -1 -15 -3q-1 0 -6 -2q-16 -4 -15 -22q0 -5 21 -9q4 -1 7 -2t11 -2q28 -4 28 -26
q0 -9 2 -29q1 -17 1 -26q0 -5 -3 -9q-4 -5 -4 -15q0 -9 2 -31q1 -18 1 -27v-19q0 -35 -1 -54q0 -3 -1 -11q-3 -47 -11 -69q-2 -7 -34 -10q-4 -1 -6 -1h-3q-12 -2 -12 -14v-6q-1 -6 -1 -8q0 -4 11 -4q29 -1 93 0h53q44 0 88 8q14 2 14 10q0 2 -1 7q-1 6 -1 10q0 10 -11 10
q-3 0 -11 1h-11h-7q-14 0 -18 1q-8 3 -10 6t-4 5q-13 14 -14 36q0 12 3 27t3 32q-4 110 -8 166q0 18 5 27q8 12 30 12q17 0 53 4q9 1 13 1q31 3 31 16q0 10 -6 15q-3 2 -4 4t-2 8q-2 8 -7 11q-7 4 -21 4h-3h-12q-17 -1 -25 0q-30 3 -35 8q-7 7 -4 37q1 7 1 22q1 8 1 13
q0 6 3 13q3 4 3 8q0 6 1 19q0 18 1 28q0 1 1 6q5 34 12 44q25 34 62 34q29 0 44 -15q3 -2 4 -3q13 -5 29 -24q4 -4 10 -12q7 -10 12 -14q1 -1 5 -3q9 -5 10 -15q6 -39 5 -63z" />
    <glyph glyph-name="f_b" unicode="fb" horiz-adv-x="875" 
d="M516 583v13q0 10 -1 32v48v19q0 16 -31 15h-4q-20 0 -65 -17q-16 -6 -19 -6q-6 0 -16 5q-5 2 -7 3q-7 2 -22 8q-19 9 -39 9q-68 0 -92 -17q-53 -39 -78 -83q-46 -81 -50 -137q-1 -6 -1 -21q-2 -40 -9 -52q-4 -6 -20 -8q-9 -1 -15 -3q-1 0 -6 -2q-16 -4 -15 -22
q0 -5 21 -9q4 -1 7 -2t11 -2q28 -4 28 -26q0 -9 2 -29q1 -17 1 -26q0 -5 -3 -9q-4 -5 -4 -15q0 -9 2 -31q1 -18 1 -27v-19q0 -35 -1 -54q0 -3 -1 -11q-3 -47 -11 -69q-2 -7 -34 -10q-4 -1 -6 -1h-3q-12 -2 -12 -14v-6q-1 -6 -1 -8q0 -4 11 -4q29 -1 93 0h53q44 0 88 8
q14 2 14 10q0 2 -1 7q-1 6 -1 10q0 10 -11 10q-3 0 -11 1h-11h-7q-14 0 -18 1q-8 3 -10 6t-4 5q-13 14 -14 36q0 12 3 27t3 32q-4 110 -8 166q0 18 5 27q8 12 30 12q17 0 53 4q9 1 13 1q31 3 31 16q0 10 -6 15q-3 2 -4 4t-2 8q-2 8 -7 11q-7 4 -21 4h-3h-12q-17 -1 -25 0
q-30 3 -35 8q-7 7 -4 37q1 7 1 22q1 8 1 13q0 6 3 13q3 4 3 8q0 6 1 19q0 18 1 28q0 1 1 6q5 34 12 44q25 34 62 34q29 0 44 -15q3 -2 4 -3q13 -5 29 -24q4 -4 10 -12q7 -10 12 -14q28 -21 23 -64q-10 -85 3 -210q0 -4 2 -13q3 -17 0 -24q-12 -28 -9 -90q1 -21 1 -33
q-1 -8 -3 -19q-1 -8 -1 -14q0 -9 4 -29q3 -16 3 -24q0 -9 -2 -30q-1 -12 -1 -19q0 -8 5 -13q4 -4 9 -4q3 0 9 2t8 2q4 0 29 -4q21 -3 26 -3q4 0 9 -1q4 -1 14 0q16 1 25 -1q8 -2 23 -2q89 0 137 20q60 25 106 94q36 56 36 124q0 61 -35 118q-57 93 -139 93q-14 0 -39 -7
q-20 -5 -32 -5t-31 -8q-13 -5 -26 -5q-10 0 -14 4q-3 3 -5 33v7q-2 19 -3 37q0 14 -1 26q-1 14 -1 39q0 1 -1 8q-2 12 -2 18zM661 48q-21 -20 -54 -20q-46 0 -64 47q-9 22 -15 59q-3 21 -6 33q-1 5 4 12q3 5 2 12q-2 7 -7 27q-8 32 -6 54q2 26 13 49q3 8 5 22q1 10 4 14
q9 11 41 11h4q29 0 61 -18q44 -25 63 -79q2 -6 6 -17q17 -46 17 -71q0 -70 -44 -120q-4 -5 -15 -9q-6 -2 -9 -6z" />
    <glyph glyph-name="f_k" unicode="fk" horiz-adv-x="857" 
d="M403 424q-1 -21 3 -64q3 -37 3 -56l-3 -84q-4 -85 -3 -127q2 -37 -10 -50q-9 -10 -20 -14q-2 -1 -8 -3q-8 -2 -11 -5t-3 -13q0 -14 28 -14t93 2q54 2 83 2q22 0 26 4t4 27q0 16 -22 16q-13 0 -22 4q-1 0 -2 1q-10 4 -12 14q-2 6 -7 23q-9 30 -9 45v7q-1 12 1 15
q5 10 12 10q5 0 12 -6q41 -37 69 -80q1 -1 3 -5q9 -14 11 -21q4 -12 -9 -12q-4 0 -3 -11v-1q0 -6 2 -20q1 -8 9 -8q6 0 19 1q12 1 16 1q26 0 83 -5q47 -4 73 -4q33 0 33 14q0 20 -17 24q-1 0 -3 1q-9 2 -16 3q-17 3 -37 18q-13 11 -32 32q-13 14 -38 44q-16 20 -25 30
q-22 25 -49 46q-24 18 -24 31q0 14 22 32q14 11 44 38q25 23 39 34q50 38 97 44q17 2 17 11q0 19 -16 19q-4 0 -15 1h-14q-28 0 -40 1q-27 3 -44 3q-14 0 -29 -4q-34 -9 -54 -12h-4q-15 -1 -16 -12q-1 -9 10 -13q2 -1 3 -1q21 -10 21 -22t-14 -23l-21 -18q-25 -22 -41 -35
q-1 -1 -6 -5q-8 -9 -13 -9q-8 0 -8 18q-1 27 -1 86q-1 48 -1 75q-1 14 2 48q2 21 2 32q0 5 -1 18q-1 9 -1 15q0 3 -2 8q-1 4 -1 7q0 18 -1 55v49v19q0 16 -31 15h-4q-20 0 -65 -17q-16 -6 -19 -6q-6 0 -16 5q-5 2 -7 3q-7 2 -22 8q-19 9 -39 9q-68 0 -92 -17
q-53 -39 -78 -83q-46 -81 -50 -137q-1 -6 -1 -21q-2 -40 -9 -52q-4 -6 -20 -8q-9 -1 -15 -3q-1 0 -6 -2q-16 -4 -15 -22q0 -5 21 -9q4 -1 7 -2t11 -2q28 -4 28 -26q0 -9 2 -29q1 -17 1 -26q0 -5 -3 -9q-4 -5 -4 -15q0 -9 2 -31q1 -18 1 -27v-19q0 -35 -1 -54q0 -3 -1 -11
q-3 -47 -11 -69q-2 -7 -34 -10q-4 -1 -6 -1h-3q-12 -2 -12 -14v-6q-1 -6 -1 -8q0 -4 11 -4q29 -1 93 0h53q44 0 88 8q14 2 14 10q0 2 -1 7q-1 6 -1 10q0 10 -11 10q-3 0 -11 1h-11h-7q-14 0 -18 1q-8 3 -10 6t-4 5q-13 14 -14 36q0 12 3 27t3 32q-4 110 -8 166q0 18 5 27
q8 12 30 12q17 0 53 4q9 1 13 1q31 3 31 16q0 10 -6 15q-3 2 -4 4t-2 8q-2 8 -7 11q-7 4 -21 4h-3h-12q-17 -1 -25 0q-30 3 -35 8q-7 7 -4 37q1 7 1 22q1 8 1 13q0 6 3 13q3 4 3 8q0 6 1 19q0 18 1 28q0 1 1 6q5 34 12 44q25 34 62 34q29 0 44 -15q3 -2 4 -3q13 -5 29 -24
q4 -4 10 -12q7 -10 12 -14q1 -1 5 -3q9 -5 10 -15q4 -28 0 -92q-1 -30 -1 -46z" />
    <glyph glyph-name="f_f_k" unicode="ffk" horiz-adv-x="1169" 
d="M365 356q39 -1 39 -28q0 -9 2 -29q1 -17 1 -26q0 -5 -3 -9q-4 -5 -4 -15q0 -9 2 -31q1 -18 1 -27q0 -6 1 -19q0 -35 -2 -54v-11q-4 -47 -12 -69q-2 -7 -33 -10q-4 -1 -7 -1h-2q-13 -2 -13 -14v-6q-1 -6 -1 -8q0 -4 11 -4q30 -1 94 0h52q44 0 88 8q14 2 14 10v7
q-2 6 -2 10q0 10 -11 10q-3 0 -10 1h-12h-7q-14 0 -18 1q-8 3 -10 6q-1 3 -4 5q-12 14 -14 36q0 12 3 27t3 32q-3 110 -8 166q0 18 5 27q8 12 30 12q18 0 54 4q8 1 12 1q31 3 31 16q0 10 -6 15l-4 4q0 2 -2 8q-2 8 -7 11q-6 4 -20 4h-4h-12q-16 -1 -25 0q-30 3 -35 8
q-6 7 -4 37q2 7 2 22v13q0 6 4 13q2 4 2 8q1 6 1 19q0 18 1 28q1 1 1 6q5 34 13 44q24 34 61 34q29 0 45 -15q2 -2 4 -3q13 -5 29 -24q4 -4 9 -12q7 -10 13 -14q1 -1 4 -3q10 -5 11 -15q3 -28 0 -92q-2 -30 -2 -46q0 -21 3 -64q3 -37 3 -56q0 -28 -3 -84q-4 -85 -3 -127
q2 -37 -10 -50q-8 -10 -20 -14q-2 -1 -8 -3q-7 -2 -11 -5q-3 -3 -3 -13q0 -14 28 -14q29 0 94 2q53 2 82 2q22 0 26 4t4 27q0 16 -22 16q-12 0 -22 4l-2 1q-9 4 -12 14q-1 6 -6 23q-10 30 -10 45v7q0 12 1 15q5 10 12 10q5 0 12 -6q42 -37 69 -80q1 -1 4 -5q9 -14 10 -21
q4 -12 -9 -12q-3 0 -3 -11v-1q0 -6 2 -20q2 -8 9 -8q6 0 20 1q11 1 15 1q27 0 84 -5q47 -4 72 -4q33 0 33 14q0 20 -17 24l-2 1q-10 2 -17 3q-17 3 -37 18q-12 11 -32 32q-12 14 -38 44q-16 20 -25 30q-22 25 -49 46q-24 18 -24 31q0 14 22 32q14 11 44 38q25 23 39 34
q51 38 97 44q17 2 17 11q0 19 -16 19q-4 0 -15 1h-14q-28 0 -40 1q-27 3 -44 3q-14 0 -29 -4q-34 -9 -54 -12h-4q-15 -1 -16 -12q-1 -9 11 -13q1 -1 2 -1q21 -10 21 -22t-14 -23q-6 -6 -20 -18q-26 -22 -42 -35l-5 -5q-9 -9 -14 -9q-8 0 -8 18q0 27 -1 86q0 48 -1 75
q0 14 3 48q1 21 1 32q0 5 -1 18q-1 9 -1 15q0 3 -1 8q-2 4 -2 7v55q-1 31 -1 49v19q0 16 -31 15h-4q-19 0 -65 -17q-16 -6 -19 -6q-5 0 -15 5q-5 2 -8 3q-7 2 -21 8q-20 9 -39 9q-69 0 -93 -17q-53 -39 -78 -83q-46 -81 -50 -137v-25q1 -31 -6 -41q-5 -8 -21 -7h-6t-7 -1
q-7 -1 -24 0q-21 1 -37 1q-18 0 -39 -2h-10h-3q-7 1 -21 1h-2q-13 0 -16 3q-7 6 -7 40q0 9 1 17q1 6 -2 8q-3 3 -3 8v2q0 7 4 13q2 4 2 8q1 7 1 19q0 19 1 28q1 6 4 19q3 15 4 22q6 43 44 43q11 0 21 -3q8 -3 26 -15q20 -13 34 -13h1q25 0 32 14q1 3 5 10q11 22 11 33
q0 21 -9 33q-1 2 -10 5q-5 1 -7 2q-16 13 -38 13q-68 0 -113 -32q-48 -35 -84.5 -94t-36.5 -102v-7q1 -9 1 -19q0 -36 -11 -54q-4 -6 -20 -8q-9 -1 -15 -3q-1 0 -6 -2q-15 -4 -15 -20v-2q0 -5 21 -9q4 -1 7 -2t11 -2q28 -4 28 -26q0 -9 2 -29q1 -17 1 -26q0 -5 -3 -9
q-4 -5 -4 -15q0 -9 2 -31q1 -18 1 -27v-19v-17q0 -21 -1 -37q0 -3 -1 -11q-3 -47 -11 -69q-2 -7 -34 -10q-4 -1 -6 -1h-3h-2q-11 0 -11 -11v-8v-9q0 -6 52 -5l4 1h52h49q44 0 88 8q14 2 14 10q0 2 -1 7q-1 6 -1 10q0 10 -11 10q-3 0 -11 -1h-11q-2 0 -7 1t-7 1q-8 0 -11 1
q-8 3 -10 6t-4 5q-13 14 -14 36q0 12 3 27t3 32q-4 110 -8 166q0 18 5 27q9 14 31 14q8 0 27 -1h24h16q3 1 12 0h13q3 0 10 1q5 1 8 1h27z" />
    <glyph glyph-name=".notdef" horiz-adv-x="649" 
d="M65 0v666h519v-666h-519zM519 65v536h-389v-536h389z" />
    <glyph glyph-name="glyph1" horiz-adv-x="0" 
 />
    <glyph glyph-name="glyph2" horiz-adv-x="649" 
 />
    <glyph glyph-name="glyph3" unicode=" " horiz-adv-x="250" 
 />
    <glyph glyph-name="exclam" unicode="!" horiz-adv-x="306" 
d="M174 232q8 2 10 12l20 155q1 9 4 35q4 31 7 50q1 9 6 19q3 8 4 18v7v8v7q0 12 3 19q5 10 10 31q2 11 4 15q1 2 3 5q6 9 6 16q0 4 -4 10t-8 7q-5 2 -14 7q-5 3 -9 4q-12 5 -27 31q-4 9 -8 14q-6 9 -25 9q-13 0 -18 -6t-8 -14q-2 -6 -4 -9q-3 -4 -7 -6l-5 -5
q-10 -10 -25 -16q-31 -12 -31 -23q0 -16 9 -27q9 -13 13 -26q2 -8 10 -26q13 -31 16 -51q4 -31 10 -91q2 -17 3 -25q1 -14 5 -38q4 -23 4 -37v-9v-13v-10q-1 -5 -1 -11q0 -10 3 -22v-3q0 -15 11 -15q24 0 33 4zM71 100q-14 -9 -14 -19q1 -13 18 -20q3 -1 5 -2q16 -8 36 -33
q4 -5 7 -8q3 -4 10 -16q10 -17 18 -17q17 0 21 15q4 11 13 25q10 15 20 21q3 2 14 11q6 5 7 5q13 6 13 20q0 15 -31 22q-9 2 -18 17q-3 5 -5 8q-1 1 -4 5q-8 11 -10 19q-3 15 -18 15q-7 0 -22 -18q-2 -3 -4 -5q-5 -6 -8 -13q-4 -7 -11 -13q-4 -3 -19 -10q-12 -5 -18 -9z" />
    <glyph glyph-name="quotedbl" unicode="&#x22;" horiz-adv-x="345" 
d="M122 712q-27 0 -62 -18l-10 -5q-14 -6 -14 -16q-1 -25 14 -97q2 -8 3 -13q2 -10 -1 -33q-1 -14 -1 -22q2 -22 2 -31q0 -16 9 -16q1 0 5 2q5 1 7 1q3 0 6 2t6 2q3 1 8 1h5q10 3 11 9q1 2 1 3q4 14 16 72q2 12 4 41q0 14 1 21q1 14 8 39q6 28 7 42q1 16 -25 16zM223 695
q-4 -1 -15 -6q-10 -5 -10 -15q0 -11 5 -36q6 -29 5 -48q-1 -27 5 -90q1 -20 2 -28q1 -9 8 -9q1 0 6 1q9 1 14 1q28 0 31 26q1 8 3 11q6 10 5 25v5q0 8 10 41q2 8 3 11q2 9 7 15q6 7 5 16q-1 19 2 55q1 12 1 19q0 8 -16 12q-2 1 -4 1l-8 4q-7 3 -13 3q-9 0 -34 -9
q-7 -3 -12 -5z" />
    <glyph glyph-name="numbersign" unicode="#" horiz-adv-x="543" 
d="M159 485l-53 -8q-20 -2 -20 -27q0 -23 19 -23q6 0 19 1q27 0 34 -13q3 -7 3 -33l-1 -1v-1l-1 -32q-2 -41 -10 -59q-3 -6 -7 -10q-10 -10 -30 -14q-15 -3 -42 -3q-41 0 -43 -45q0 -23 41 -23h5h8l20 1q17 0 17 -21q0 -18 -3 -33q-2 -8 -5 -34q0 -5 -3 -15q-8 -22 -8 -61
q0 -31 25 -31q27 0 32 3q7 4 11 14q13 27 29 110q3 18 6 29q6 27 17.5 33.5t56.5 6.5q12 0 12 -15v-4q0 -8 -5 -26q-5 -15 -5 -22q-2 -23 -6 -43q-3 -10 -3 -17q-1 -8 -6 -33q-4 -20 -4 -25q0 -7 29 -7h30q15 0 19 13q2 5 6 21q5 16 8 25q14 36 14 57q0 48 10 61q3 3 6 12
q6 15 70 15h10q19 0 19 16q0 24 -20 30l-28 6q-40 7 -40 30q0 22 10 66.5t17 54.5q12 13 49 14h16l13 1q19 0 19 24q0 18 -16 28q-11 9 -43 7q-17 0 -17 22q0 21 3 53q5 40 5 79v5v4q0 18 -17 18q-1 0 -5 -1h-3q-24 0 -29.5 -4t-12.5 -30q-3 -12 -6 -30q-6 -31 -14 -59
q-2 -5 -2 -24q-1 -20 -5 -26q-8 -10 -44 -9h-8q-31 0 -31 30v3q0 13 10 31q7 17 7 50v3v6q0 38 -5 47t-27 9h-9q-5 -1 -8 -1q-35 0 -35 -43q0 -4 -2 -12q-1 -3 -1 -5q3 -9 3 -17v-3v-6q0 -54 -13 -80q-5 -8 -29 -9q-2 -1 -3 -1zM273 414h3h23q31 0 31 -23q0 -35 -5 -54
q-4 -12 -8 -37q-4 -21 -7 -25q-9 -11 -21 -11h-6q-26 -2 -51 -2q-13 0 -13 7q0 3 2 11q2 5 3 8t4 31q5 49 12 70q0 2 1 6q5 19 32 19z" />
    <glyph glyph-name="dollar" unicode="$" 
d="M256 292q-3 -45 -3 -71l-1 -17q-1 -40 -5 -46q-9 -12 -7 -29v-6q-1 -9 1 -26v-12v-40q0 -9 -25 9q-9 6 -28 16q-37 20 -51 36q-17 21 -18 40q-1 8 -10 19l-2 2q-6 6 -15 4q-7 -2 -13 1q-12 7 -17 7q-10 0 -10 -21q0 -27 8 -45q5 -12 8 -38q1 -6 1 -10q4 -28 11 -36
q7 -7 33 -10l25 -4q66 -12 101 -14q3 -28 -3 -64q-3 -16 -3 -27q-2 -20 9 -21q7 -1 13 2t12 4q20 5 20 13v37q0 1 -1 3q-4 8 -3 14q0 7 4 20q3 10 3 17q17 1 52 13q11 3 18 5q9 2 24 11q8 3 12 5q6 2 16 6q29 12 59 52q25 35 25 87q0 78 -19 96q-6 6 -21 24q-16 20 -33 36
q-6 6 -24 15q-1 1 -2 1q-7 4 -26 11q-21 9 -32 18q-8 7 -28 17q-4 41 -2 76q1 19 6 37q2 7 2 13q1 13 5 37q3 13 3 18q0 4 -1 11q-2 14 0 25l1 6q2 0 12 -3q32 -7 42 -20l17 -17q18 -16 24 -28q1 -2 4 -7q5 -10 8 -13q9 -10 22 -10q8 0 15 7q3 3 7 6q4 2 4 6q0 6 -3 14
q-1 3 -1 6q0 2 -2 9q-3 8 -3 16q0 6 -1 17q-2 11 -1 19q3 24 -26 31q-5 2 -13 6q-7 4 -13 4q-3 0 -10 -2t-9 -1q-4 1 -13 6q-8 4 -13 6q-15 4 -36 4q-6 0 -9 4q-1 2 1 16q1 10 1 15q0 19 -10 24q-3 1 -8 2q-4 0 -7 1t-7 3q-5 2 -9 2q-2 0 -4 -1q-1 -1 -2 -1q-3 -1 -3 -6
q0 -4 3 -8q0 -1 -2 -3q-2 -3 -3 -6q-2 -8 -1 -19q1 -6 1 -10q0 -13 -7 -17t-18 -3h-7q-7 0 -15 -3q-4 -1 -8 -1q-9 2 -27 -2q-15 -3 -28 -13l-6 -4l-21 -15q-31 -20 -45 -58q-8 -22 -10 -38q-2 -14 -5 -33q-3 -12 -3 -17q0 -16 6 -29q2 -4 7 -11q6 -9 8 -14q2 -4 4 -12
q2 -5 4 -9q3 -6 11 -18q2 -3 3 -5t5 -8q17 -30 41 -41q7 -3 22 -12q20 -11 33 -15q2 0 9 -2q27 -5 26 -16zM303 250q12 -9 20 -12q57 -30 57 -90q0 -24 -8 -43q-18 -40 -80 -59v37q0 57 1 73q0 4 3 14q4 13 4 21q0 5 -1 20q-2 24 4 39zM264 409q-9 8 -20 11q-7 2 -10 7
q-1 2 -2 5q-5 11 -11 14q-31 18 -33 52q0 3 2 17q2 12 2 16q1 11 11 21q6 5 9 10l5 10q10 19 21 24q4 2 14 9q14 10 23 12l-1 -33q0 -6 -1 -16q-1 -40 1 -52q2 -8 -6 -26q-4 -11 -4 -15q3 -26 0 -66z" />
    <glyph glyph-name="percent" unicode="%" horiz-adv-x="809" 
d="M345 419q23 44 23 125q0 41 -37 74q-8 6 -23 21q-23 21 -36 31q-14 11 -34 11q-43 0 -133 -25q-27 -8 -39 -41q-2 -9 -10 -32q-13 -41 -15 -64q0 -2 -1 -6q-1 -15 -1 -22q0 -79 63 -120q48 -31 119 -31q32 0 70.5 24.5t53.5 54.5zM139 507q0 64 41 127q9 13 15 13
q5 0 15 -8q30 -21 35 -42q1 -3 1 -12q1 -10 3 -14q15 -28 15 -58q0 -23 -13 -70l-6 -24q-8 -36 -46 -36q-26 0 -41 28q-19 37 -19 96zM756 194q-18 29 -28 69q-6 20 -17 27q-51 34 -96 34q-5 0 -18 -2q-18 -2 -31 -3q-51 -3 -91 -49q-38 -45 -38 -94q0 -22 7 -63q1 -9 2 -13
q6 -39 32.5 -69.5t60.5 -36.5q22 -4 46 -4q41 0 77 15q39 16 71 46q18 18 18 30q0 6 -1 9q-4 10 -2 20q1 10 14 25q6 7 5 21v4q0 14 -11 34zM653 101q-3 -8 -6 -23q-2 -10 -5 -16q-9 -22 -18 -32q-9 -9 -17 -9q-9 0 -19 11q-35 37 -45 59q-9 19 -9 71q0 30 14 79
q13 53 45 53q23 0 40 -37q4 -8 7 -13q4 -7 4 -17q-1 -20 7 -60q4 -20 5 -31q3 -17 -3 -35zM500 431q3 6 8 17q22 45 43 63q9 9 20 31l4 8q16 33 35 44q9 5 16 24q6 22 1 31q-4 5 -18 6q-5 0 -7 1q-10 2 -14 2q-23 -1 -46 -36q-47 -67 -67 -100q-8 -14 -30 -42
q-30 -41 -40 -68q-27 -69 -76 -133q-6 -7 -22 -25q-30 -33 -39 -54q-2 -3 -5 -11q-3 -9 -5 -13q-2 -3 -8 -8q-4 -4 -6 -7q-7 -9 -18 -32q-6 -15 -10 -22q-8 -12 -26 -36q-9 -12 -13 -18q-2 -2 -6 -7q-14 -19 -19 -30q-1 -1 -1 -2q-1 -4 -1 -6q0 -24 16 -27q21 -3 34 -3
q18 0 31 18l34 51q7 12 12 19q1 2 4 7q19 30 18 50q0 11 15 22q38 29 76 107q19 40 44 75q42 59 66 104z" />
    <glyph glyph-name="ampersand" unicode="&#x26;" horiz-adv-x="772" 
d="M407 94q14 16 19 16q4 0 23 -22l2 -2l7 -7q4 -5 8 -13q3 -7 7 -11q1 -2 9 -4q6 -3 7 -4t3 -4q13 -13 23 -20q32 -23 84 -23q21 0 37 4q76 16 104 57q10 13 10 19q0 7 -9 12q-2 1 -5 3q-5 3 -9 3t-11 -6q-1 -1 -2 -1q-32 -26 -68 -26q-35 0 -62 27q-31 32 -73 79l-6 6
q-9 11 -9 13t11 14q7 8 9 10q12 16 17 23q8 10 34 43q43 53 66 85q14 18 28 21q11 3 29 9q18 7 31 10q10 3 10 25q0 13 -8 15q-6 1 -22 1q-7 1 -11 1q-11 1 -28 -2q-11 -1 -19 -1q-3 0 -5 1q-3 2 -8 2q-17 0 -51 -2q-28 -2 -46 -2q-26 0 -26 -28q0 -3 9 -7q7 -2 10 -5
q2 -1 8 -2q3 -1 4 -1q12 -4 12 -13q0 -6 -4 -11q-6 -10 -8 -19q-5 -42 -28 -68q-2 -2 -7 -6q-7 -6 -10 -10l-20 -23q-13 -15 -16 -15q-6 0 -20 18q-4 4 -13 15q-13 15 -26 27q-2 2 -8 14q-6 11 -8 13q-7 7 -27 23l-15 12q-14 11 -14 18q0 3 17 15q23 14 39 38q27 36 27 67
q0 53 -43 69q-53 20 -83 25q-26 4 -41 4q-28 0 -44 -11q-18 -12 -31 -25q-19 -19 -27 -34q-1 -2 -3 -9q-1 -7 -2 -9q-10 -30 -10 -45q0 -28 13 -48q5 -7 11 -14q10 -10 19 -22q10 -14 10 -17t-12 -12q-8 -6 -31 -20q-2 -1 -8 -5q-11 -6 -15 -11l-8 -12q-23 -32 -32 -50
q-22 -47 -22 -85q0 -27 12 -56q18 -40 41 -60q24 -20 73 -34q30 -8 59 -8q48 2 92 19q15 6 34 23q7 7 19 18q14 14 27 28zM263 558q5 0 11 -5q37 -33 37 -71q0 -41 -22 -65q-8 -10 -13 -10t-11 6q-38 36 -38 92q0 25 16 42q9 11 20 11zM368 136q-16 -14 -31 -30l-11 -11
q-20 -19 -48 -19q-45 0 -77 35q-6 7 -12 27q-2 8 -5 13q-2 5 -8 14q-15 25 -15 40q-2 46 27 85q24 34 40 34q6 0 23 -19q9 -11 31 -34q1 -1 15 -12q11 -10 12 -11q5 -6 17 -22q11 -16 20 -24q2 -2 8 -7q16 -14 22 -21q1 -1 3 -4q8 -9 8 -12t-19 -22z" />
    <glyph glyph-name="quotesingle" unicode="'" horiz-adv-x="182" 
d="M59 699q-24 -1 -24 -25q0 -3 2 -10q1 -6 1 -10q1 -9 3 -31q3 -20 4 -33q0 -6 3 -24q2 -19 2 -30q0 -3 -1 -10q-2 -7 -1 -12q1 -11 2 -27q2 -10 2 -15q1 -9 8 -9q13 0 27 6q6 3 17 6q13 4 14 20q0 6 2 18q2 13 2 18t4 20q5 20 6 33q1 11 4 21q3 7 4 15q6 33 7 69
q0 11 -15 14q-7 2 -23 1h-4q-6 0 -19 -2q-14 -2 -27 -3z" />
    <glyph glyph-name="parenleft" unicode="(" horiz-adv-x="375" 
d="M214 428q5 25 8 55q0 8 1 10q3 8 10 27q8 20 11 31q3 8 8 25q10 33 16 50q9 24 17 32q5 5 16 21q6 10 9 13q8 8 9 17q2 16 2 25q0 12 -15 12q-12 0 -43 -19q-38 -25 -77 -106q-36 -77 -67 -208q-1 -5 -4 -16q-8 -28 -8 -43q0 -3 -1 -8q-2 -12 1 -17q2 -3 -1 -14v-2
q-6 -24 1 -44q2 -9 3 -30q1 -4 1 -7q3 -60 34 -156q14 -46 23 -68q16 -47 45 -80q6 -6 14 -24q3 -6 5 -9q9 -17 34 -33q7 -4 14 -4q5 0 9 2q3 2 9 4q9 4 14 7q3 2 8 5q7 4 7 12q0 9 -6 17l-1 1l-10 15q-2 5 -4 8q-52 74 -78 162q-9 29 -18 87q-4 27 -8 46q-5 21 -5 25
q0 10 2 15q5 16 4 29q-5 50 11 135z" />
    <glyph glyph-name="parenright" unicode=")" horiz-adv-x="379" 
d="M181 -25q9 16 17 37q5 13 9 21q4 9 11 18q4 5 6 9q21 49 32 94q19 75 21 114q1 27 -8 82q-6 31 -6 51q0 64 -29 136q-3 7 -6 22q-3 10 -5 17q-25 88 -86 150q-1 2 -5 6q-22 24 -39 24q-8 0 -12 -2q-21 -10 -21 -36q0 -10 12 -29q23 -36 59 -114q18 -41 21 -71
q1 -14 9 -42q8 -29 7 -44q-1 -11 4 -28q1 -1 1 -2q4 -12 1 -34q-1 -4 -1 -7q0 -4 -1 -15q-2 -15 -2 -23v-32q0 -42 -3 -63q-2 -11 1 -34q3 -29 -12 -48q-9 -11 -11 -28q-1 -6 -3 -16q-7 -37 -17 -58q-10 -23 -18 -42q-7 -15 -17 -38q-4 -10 -26 -41q-1 -2 -5 -5
q-9 -8 -9 -12q0 -5 9.5 -14.5t13.5 -9.5q26 0 37 17q9 13 33 40q26 27 38 50z" />
    <glyph glyph-name="asterisk" unicode="*" horiz-adv-x="454" 
d="M64 596q1 -7 8 -11q4 -2 10 -3q3 -1 4 -1q8 -2 13 -3l9 -3q8 -1 11 -2q26 -8 40 -12l12 -4q12 -3 14 -4q8 -2 8 -5t-12 -14l-18 -15q-15 -11 -22 -19q-8 -7 -17 -18q-3 -3 -6 -7q-5 -6 -14 -10q-13 -7 -13 -13v-1q1 -6 17 -18q3 -2 5 -3q21 -20 33 -20q3 0 8 9l1 1
q4 7 7 12q11 14 28 39l4 5q1 2 5 6q6 5 6 9v2q-1 0 -1 1q0 31 24 33q4 0 12 -16q3 -6 7 -12q3 -5 7 -11q2 -4 5 -8q5 -9 17 -28q12 -21 15 -31l1 -4q4 -12 13 -12q15 0 36 16.5t21 28.5q0 17 -52 57q-9 7 -12 11l-1 1q-2 2 -3 4q-7 8 -20 19l-3 3l-1 1q-2 2 -2 4q0 3 4 4h1
q4 0 9 4q4 3 7 4h2q3 1 5 2q20 5 27 7q5 1 9 3q25 8 44 13q15 5 15 11t-5 14q-2 4 -8 12q-7 12 -10 19q-2 5 -3 8l-2 2q-3 6 -7 6t-11 -5q-8 -7 -18 -13q-9 -5 -19 -16q-9 -8 -21 -15q-3 -1 -10 -5q-6 -4 -10 -6q-5 -3 -7 -4q-1 -2 -3 -2q-6 -1 -6 12q0 22 6 38q1 3 2 10
q1 6 2 9q2 4 2 12q0 11 2 26q2 10 2 14q0 15 -8 19l-4 1l-6 3q-17 6 -27 6q-28 0 -28 -14q0 -6 2 -18q0 -3 1 -5l1 -9q2 -13 3 -20q3 -24 4 -31q6 -31 6 -48q0 -4 -8 -4t-21 9q-1 2 -2 2q-14 10 -24 15q-2 1 -3 3q-3 6 -16 10q-12 3 -23 11q-10 5 -16 5q-35 0 -35 -36v-8z
" />
    <glyph glyph-name="plus" unicode="+" 
d="M312 465l1 5v1v4q0 9 -9 11q-24 4 -39 4q-17 0 -25 -5q-4 -2 -4 -13q0 -8 2 -24q2 -13 2 -20q0 -14 -6 -22q-5 -7 -5 -20q0 -6 1 -19q2 -15 2 -24q0 -3 1 -13q2 -13 2 -21q0 -38 -42 -38q-9 0 -27 4q-6 1 -10 2q-10 1 -21 1q-26 0 -86 -8q-9 -1 -14 -2q-14 -1 -14 -17
q0 -32 8 -43q5 -6 43 -6h17h14q4 0 29 1q44 2 65 2q24 0 31 -2q13 -4 5 -52q-3 -26 -3 -39v-6q2 -45 2 -73q0 -22 -1 -27q-3 -7 -3 -12q0 -10 19 -12q1 -1 2 -1q18 -2 37 -6q12 -3 20 -3q12 0 12 29q-1 18 -1 30q0 19 2 36v8q0 13 -6 47q-4 28 -4 38q0 6 1 9q6 23 31 30
q13 4 26 4q6 0 18 -1q7 -1 11 -1q7 0 36 1q35 2 47 2h7h6q22 0 27 9q5 8 10 30q1 2 1 5q0 15 -11 20q-17 7 -47 4q-11 -1 -18 -1q-8 0 -16 1q-26 3 -56 3q-12 0 -34 -1h-17q-14 0 -17 3q-4 3 -4 14q0 10 5 38q1 8 2 11q1 9 1 14q0 3 -1 8v15q0 10 -3 40q-2 25 -2 37v11z" />
    <glyph glyph-name="comma" unicode="," horiz-adv-x="243" 
d="M114 -32q0 -28 -17 -41q-9 -7 -28 -17q-7 -3 -11 -5q-19 -10 -19 -24q0 -17 14 -17q19 0 49 10q19 7 54 33q7 5 13 17q3 6 6 10q11 14 13 20q7 22 7 52q0 28 -9 45q-29 57 -40.5 69t-35.5 12q-9 0 -18 -6q-4 -3 -20 -18l-11 -11q-4 -3 -11 -9q-15 -13 -15 -25t30 -30
q49 -31 49 -65z" />
    <glyph glyph-name="hyphen" unicode="-" horiz-adv-x="352" 
d="M51 163q0 -14 13 -12q3 0 9 2q16 4 33 5q13 1 48 8q22 5 34 6q33 4 47 6q7 1 15 5l6 2q18 5 31 41q1 3 5 12q8 20 8 26q0 8 -5 14q-4 6 -21 6q-30 0 -77 -14q-7 -2 -28 -15q-17 -10 -25 -13q-33 -11 -48 -17t-21 -9q-8 -4 -20 -22q-5 -7 -4 -24v-6v-1z" />
    <glyph glyph-name="period" unicode="." horiz-adv-x="241" 
d="M48 65q3 -2 10 -6q10 -5 15 -8q8 -5 17 -19q4 -7 7 -11q5 -6 15 -19q11 -13 15 -13q12 0 17 8q3 5 9 18q4 7 6 11q11 16 30 29q22 14 22 24q0 12 -17 19q-2 1 -12 7l-1 1q-1 1 -7 5q-9 7 -13 12q-1 1 -2 3q-13 16 -17 31q-3 9 -16 9t-26 -25q-1 -2 -8 -9q-7 -6 -9 -9
q-12 -17 -30 -20q-23 -3 -23 -18q0 -10 18 -20z" />
    <glyph glyph-name="slash" unicode="/" 
d="M420 713q-8 0 -22 -1q-4 -1 -6 -1q-26 0 -33.5 -7.5t-15.5 -40.5q-10 -42 -18 -61q-3 -5 -9 -22q-10 -26 -15 -33q-15 -21 -29 -69q-9 -32 -16 -48q-11 -25 -25 -86q0 -4 -1 -7q-4 -17 -10 -22q-11 -8 -18 -31q-1 -5 -2 -8q-3 -7 -7 -21q-4 -16 -7 -24q-8 -16 -18 -49
q-12 -37 -24 -59q-7 -12 -4 -28q2 -16 -10 -39q-6 -11 -8 -21q-3 -13 -16 -28q-3 -3 -4 -5q-9 -10 -9 -25q0 -18 20 -18h27q42 0 55 25q5 12 12 41q1 7 2 10q17 75 35 108q30 54 39 104q8 36 38 111q5 10 7 16q4 11 16 37q21 48 27 74q15 62 35 99q7 14 10 25q4 15 19 42
q8 16 10 23q9 25 4.5 32t-29.5 7z" />
    <glyph glyph-name="zero" unicode="0" 
d="M522 501q-4 24 -22 58q-33 66 -56 87q-39 38 -118 55q-6 1 -24 6q-23 6 -35 6q-28 0 -89 -35l-22 -11q-11 -4 -13 -6q-15 -12 -17 -23q-1 -4 -4 -6q-2 -1 -7 -4q-19 -9 -30 -26l-27 -45q-28 -46 -28 -90q-1 -17 -6 -21q-3 -4 -3 -16q0 -7 -2 -28q-3 -29 -3 -48
q0 -103 55 -216q2 -5 8 -17q15 -29 19 -45q8 -32 44 -52q58 -31 158 -31q31 0 59 23q21 17 57 37q31 17 44 46q6 14 18 41q17 41 28 65q2 4 9 16q10 18 10 30q0 8 -2 18q-2 7 -2 14q0 8 7 22q4 9 4 12q2 23 -3 84q-1 12 -2 38q-1 38 -5 62zM427 273v-11q1 -60 -18 -96
q-21 -38 -72 -66q-27 -15 -70 -15q-10 0 -35 20q-6 4 -8 6q-44 28 -73 64q-16 20 -10 29q7 10 7 20q0 9 -9 29q-2 4 -3 7q-10 27 -8 62q0 10 -1 38q-2 28 0 50q3 21 17 74q1 5 2 7q12 49 34 74q2 3 7 11q7 11 13 15q5 3 18 7q9 3 13 5q26 15 48 15q37 0 67 -22
q36 -25 49 -64q2 -6 8 -14q6 -7 8 -20q1 -5 5 -8q4 -4 5 -11q0 -9 5 -17q5 -9 5 -25q0 -4 -2 -16q-2 -9 -2 -16q0 -3 2 -13q3 -12 3 -21q0 -8 -2 -22q-1 -13 -1 -25q-2 -28 -2 -51z" />
    <glyph glyph-name="one" unicode="1" 
d="M128 8q0 -10 31 -13h4q4 0 16 -2q23 -4 34 -4h9q14 0 28 5q43 15 92 6q17 -3 32 -3q22 0 56 9q19 4 19 29q0 13 -40 13t-55.5 14t-16.5 52v40q0 30 -1 46q-2 25 -8 43q-2 4 0 10q1 4 1 7q-1 4 2 12q1 4 1 7q0 4 -2 14q-1 6 3 21v2q1 5 -1 15q-2 5 -2 8v10q1 8 -1 15
q-3 8 1 21q1 3 0 10v6q0 1 2 8q4 16 5 24q6 58 8 91q0 3 1 10q2 28 -3 40q-4 11 -4 23q0 13 13 32q11 16 19 31l1 3q4 7 4 11q0 13 -15 13q-8 0 -23 2q-24 2 -35 2q-16 0 -30 -6q-27 -11 -81 -13q-19 0 -29 -1q-24 -3 -51 -17q-10 -6 -10 -25q0 -13 19 -16q7 -1 29 -1h8
q39 0 54 -11t19 -45q1 -10 1 -30v-7q0 -12 -3 -38q-2 -22 -2 -34q0 -32 3 -62v-11t1 -10q2 -4 -1 -21v-4q-1 -7 1 -17v-8q0 -15 -1 -20q-1 -4 0 -12v-3q0 -84 -6 -139q-6 -58 -31 -81q-9 -9 -42 -18q-12 -4 -14 -5q-9 -6 -9 -28z" />
    <glyph glyph-name="two" unicode="2" 
d="M495 168q-36 0 -46 -6t-21 -35q-15 -40 -54 -46q-9 -2 -104 -11l-15 -2q-8 -1 -26 1q-12 1 -18 1q-33 0 -28 16q1 2 1 8t2 8q3 3 5 8q2 8 8 14q69 76 110 140q3 5 10 14q10 14 14 21q6 11 18 19q6 4 9 9q12 18 38 78q4 9 5 11q1 4 7 18q17 44 25 56q3 5 10 14
q11 14 11 24q0 13 -2 27t-9 41q-7 24 -9 37q-3 20 -17 23q-28 7 -56 25q-10 6 -16 10q-7 5 -21 5q-21 0 -39 -3q-43 -3 -105 -11l-19 -2q-15 -2 -25 -10q-14 -10 -43 -33q-14 -10 -21 -16q-3 -2 -8 -6q-17 -14 -25 -24t-8 -26q0 -14 13 -28q1 -1 3 -4q4 -5 7 -7q2 -1 4 -3
q3 -2 6 -2t10 -2q4 -1 6 -1q8 0 15 10q20 33 37 50q26 24 58 33q2 1 9 3q22 8 34 8q9 0 26 -3q7 -2 10 -2h3q16 -2 29 -11q7 -5 13 -29q1 -8 3 -12q1 -3 4 -9q3 -4 4 -7q2 -4 -2 -22q-4 -20 -11 -39q-2 -6 -9 -19t-9 -21q0 -1 -2 -6q-2 -8 -3 -11q-3 -7 -9 -17q-2 -6 -4 -9
q-2 -4 -3 -17q-1 -11 -3 -15q-3 -6 -14 -23q-6 -10 -9 -16q-4 -8 -5 -16l-2 -6q-3 -6 -14 -22q-12 -18 -15 -27q-7 -22 -36 -52q-7 -8 -12 -13q-3 -3 -7 -11q-3 -4 -5 -7q-11 -15 -38 -50q-22 -28 -33 -43q-11 -13 -18 -23q-2 -3 -6 -5l-4 -4q-5 -6 -14 -21q-2 -2 -3 -4
q-5 -7 -5 -15q0 -11 32 -11q13 0 28 1q9 1 16 1q4 0 13 2q13 2 19 1q11 -1 34 -3q20 -2 30 -2h27q36 0 53 -3q52 -10 92 -10q37 0 78 11q32 9 39 15.5t9 28.5q0 6 1 21q2 38 8 57q1 4 6 13q5 10 5 15q0 16 -27 16z" />
    <glyph glyph-name="three" unicode="3" 
d="M436 147q2 4 7 16q2 7 4 11q1 2 1 7q0 4 1 7q6 15 6 44v4q0 5 3 14q2 8 2 12q0 49 -51 86q-14 10 -43 24q-13 7 -21 11q-16 8 -16 12q0 3 13 15l25 25q33 32 49 50q9 9 15 39l2 6q5 20 5 46q0 5 -4 15q-2 7 -3 12q-8 42 -36 54q-83 39 -152 39q-40 0 -69 -15
q-24 -13 -57 -26q-13 -6 -24 -11q-17 -8 -17 -27q0 -24 24 -24q22 0 58 12q8 2 24 9q32 12 50 12q42 0 66 -32q12 -16 12 -26q0 -7 2 -14q2 -6 2 -14q0 -17 -5 -37q-12 -37 -33 -58t-50 -31q-14 -5 -42 -12q-19 -5 -28 -8q-25 -7 -25 -26q0 -16 20 -25q16 -7 49 -6h8
q43 0 61.5 -7t47.5 -34q19 -19 22 -42q0 -2 2 -6q2 -3 2 -8q0 -3 2 -6q1 -1 1 -3q2 -8 2 -25v-2q-1 -1 -1 -3v-3q1 -5 0 -13q-1 -10 -13 -24q-1 -1 -2 -6q-1 -1 -1 -2t-2 -2t-3 -3t-3 -7q-3 -7 -5 -12q-11 -24 -37 -33q-13 -4 -35 -13q-23 -8 -35 -11q-19 -6 -40 -6
q-6 0 -24 4q-9 2 -13 2q-7 0 -12 -1q-3 -1 -6 -1q-6 0 -14 2q-7 1 -12 1q-20 0 -20 -21q0 -25 14 -35q37 -30 75 -30q19 0 33 5q19 7 58 18q19 6 29 9q18 5 40 20q3 2 14 9q25 16 37 25q17 12 36 33q4 5 11 17q5 8 8 12q2 3 6 6q3 3 5 6z" />
    <glyph glyph-name="four" unicode="4" 
d="M410 18q8 9 10 55q1 15 -1 45v11q0 7 2 18q2 10 2 15q0 12 -7 31q-1 2 -3 7q-6 15 -3 19t14 6h1q50 4 74 9q28 6 28 46q0 16 -13 16q-9 0 -32 -2q-19 -1 -29 -1q-27 0 -36 12q-8 12 -4 30q2 11 1 31v15q2 28 2 42q0 4 -1 12q-1 10 1 16q1 1 2 6q6 13 6 21q0 11 -6 35
q-1 3 -1 5q-7 27 -7 55q0 23 8 49q7 19 7 34q0 26 -33 35q-12 3 -29 3q-18 0 -31 -8q-14 -8 -25 -26q-3 -5 -9 -18q-5 -11 -8 -16q-8 -14 -14 -19q-6 -6 -6 0q0 4 -4 0l-2 -3q-5 -5 -9 -8q-7 -4 -14 -17q-1 -1 -1 -2q-12 -20 -27 -56q-2 -6 -5 -7q-2 -1 -3 -3q-2 -4 -9 -17
q-13 -24 -20 -33q-14 -18 -35 -51q-7 -11 -11 -17q-7 -10 -22 -31l-15 -21q-9 -13 -33 -40q-10 -13 -16 -20q-14 -16 -14 -35q0 -21 30 -21q11 0 33 2q15 2 23 2q40 2 59 2q11 0 33 -2q5 0 14 -1q19 -2 28 -2q15 0 27 4q11 3 20 -1q8 -6 8 -17q0 -16 -4 -24q-7 -15 -4 -35
q1 -7 0 -17v-9q0 -4 -2 -12q-1 -6 -1 -9q0 -7 5 -19q1 -3 2 -5q6 -13 6 -36q0 -9 -5 -23q-2 -7 -2 -10q0 -15 38 -15q39 0 51 6q1 0 4 2q10 5 17 12zM300 432q1 -6 -2 -18q-2 -7 -2 -11q0 -5 -1 -15q-1 -9 0 -15q1 -3 2 -11q3 -15 4 -23q1 -21 -7 -29q-9 -9 -27 -9
q-10 -1 -28 -3q-26 -3 -42 -3q-41 0 -25 25q22 33 40 55q4 5 4 13q0 7 4 11q2 2 10 11q10 9 12 12q3 5 6 16q4 14 9 20q4 6 19 30q20 32 24 32q7 0 11 -16q2 -9 -6 -28q-8 -18 -5 -44z" />
    <glyph glyph-name="five" unicode="5" 
d="M248 10q29 0 62 31q22 20 35 19t25 5t26 26q15 22 38 57l7 10q8 11 13 15q7 5 9 21q0 4 2 13q2 8 2 14v15q-1 12 -1 20q0 19 -9 44q0 2 -1 3q-12 37 -25 56q-4 6 -19 14q-7 3 -10 5q-10 7 -10 17q0 15 -18 15q-32 0 -47 -2q-23 -2 -33 4q-12 9 -32 15q-6 2 -21 5
q-21 6 -32 10q-19 9 -20 25q0 5 -2 12q-2 8 -2 15q0 2 1 9v7l-1 50q0 4 -2 7q-2 2 -2 6q0 18 7 26q11 12 32 14q7 0 22 2q13 1 20 1q8 0 26 1h24q38 0 57 -1q7 0 27 -2q17 -2 24 -2q12 0 19 5t11 17q3 8 6 21q3 14 7 24q7 19 7 28q0 15 -14 21q-8 4 -20 4q-14 0 -28 -3
q-7 -1 -16 -9q-5 -4 -8 -6q-43 -24 -94 -24q-15 0 -50 1h-43q-13 0 -42 -4q-6 -1 -10 -1q-14 -2 -17 -16q-1 -2 -1 -6q-2 -11 -6 -15q-8 -8 -11 -16q-7 -19 -5 -31q3 -27 1 -60v-7q1 -11 0 -16q-3 -12 -1 -24q2 -17 -5 -45q-1 -7 -2 -11q0 -2 -2 -8q-3 -15 -3 -22
q0 -16 4 -23q4 -6 25 -13q48 -17 115 -17q30 0 45 -9q13 -8 28 -26q17 -22 22 -43q3 -12 3 -27q0 -6 -1 -19q-1 -11 -1 -18q0 -6 1 -20q1 -11 1 -16q0 -9 -9 -23q-9 -17 -37 -41q-18 -16 -28 -28q-12 -15 -33 -13h-4q-10 0 -28 -1q-48 -2 -75 6q-12 3 -33 3q-25 0 -25 -12
q0 -11 6 -30q2 -7 3 -12q10 -31 34 -31q10 0 34 -2q19 -2 29 -2q25 0 41 9q2 1 7 5q6 5 10 5q5 0 14 -1h7z" />
    <glyph glyph-name="six" unicode="6" 
d="M505 263q-3 11 -10 26q-4 8 -16 34q-10 24 -15 31q-26 42 -78 49q-7 1 -22 2q-58 5 -87 5q-23 0 -46 -9q-3 -1 -11 -6q-11 -7 -17 -7q-10 0 -6 11q14 35 27 54q13 18 24 45q2 5 5 14l3 9q4 10 11 10q1 0 4 -1t5 -1q9 0 18 14q3 3 4 5q21 25 35 34q24 15 80 46q12 7 20 11
q3 2 9 5q18 8 24 15q6 8 6 27q0 16 -29 16q-6 0 -18 -2q-6 -1 -10 -1q-29 -3 -78 -32q-23 -14 -37 -20q-35 -16 -77 -56q-22 -20 -39 -33q-29 -22 -45 -41q-5 -6 -19 -34q-5 -11 -6 -13t-4 -4q-4 -4 -7 -10q-3 -5 -11 -19q-20 -35 -25 -55q-8 -26 -12 -59q-2 -13 -4 -23
q-6 -34 -6 -50q0 -10 3 -26q3 -9 3 -17q0 -1 -1 -6q-2 -7 -1 -13q1 -4 2 -15q4 -30 10 -49q11 -34 35 -52q1 -1 6 -5q16 -11 22 -20q15 -22 28 -31q15 -9 37 -9q6 0 20 -5q7 -3 11 -4q22 -6 51 -6q15 0 41 7q7 2 10 3q43 9 69 23q25 13 68 60q3 4 14 14q19 17 19 31
q0 7 -3 13q-1 3 -1 4q0 3 5 11q3 5 3 7q1 5 5 17q5 15 3 24t0 17q2 12 0 31q-1 5 1 6v3zM388 164q-4 -5 -7 -23l-3 -12q-6 -21 -24 -46q-16 -22 -64 -22q-28 0 -51 16q-42 29 -52 62q-2 6 -3 20q-1 18 -8 28q-3 5 0 14q1 2 1 4q0 15 -5 25q-14 29 2 54q4 7 4 18q0 9 5 16
q26 31 71 31q28 0 60 -16q30 -15 53 -43q10 -12 13 -32l1 -6q1 -4 4 -12q5 -12 5 -19q0 -3 3 -10q3 -8 2 -13q-1 -4 -2 -14q-2 -15 -5 -20z" />
    <glyph glyph-name="seven" unicode="7" 
d="M318 244q1 3 6 12q5 8 6 11q3 7 12 19q5 6 8 12q3 7 7 27q1 4 1 6q2 10 6 46q0 3 1 13q2 13 16 20q14 8 16 27q2 14 9 23q28 29 40 80q4 22 23 37q9 6 24 49q13 37 13 50q0 22 -38 22q-45 0 -77 10q-17 6 -32 6q-6 0 -41 -5q-43 -7 -57 -7q-16 0 -51 -5q-19 -3 -27 -3
q-10 0 -23 1q-23 3 -53 2q-37 0 -37 -30q0 -5 3 -15q2 -5 2 -7q4 -19 0 -38q-2 -10 -2 -18q0 -10 -4 -27q-2 -13 -2 -22q0 -18 30 -18q42 0 55 35q9 25 18 43q6 13 23 15q45 5 98 5q11 0 39 -2q23 -1 34 -1q19 0 26 -13q6 -13 -8 -27q-18 -20 -34 -59q-11 -24 -44 -71
q-20 -27 -29 -45q-4 -8 -1 -21q1 -7 -1 -14q-6 -15 -14 -31q-15 -28 -21 -57q-3 -14 -8 -27q-3 -6 -11 -21q-7 -11 -10 -19q-19 -44 -23 -67q-4 -15 -21 -39q-4 -6 -7 -11q-1 -2 -4 -7q-13 -18 -13 -35q0 -13 17 -30q15 -15 32 -22q1 0 3 -1q11 -5 17 -5q55 0 55 44
q0 34 11 67q13 34 36 68q11 15 11 27q0 7 -5 17q-6 12 0 26z" />
    <glyph glyph-name="eight" unicode="8" 
d="M481 86q4 6 6 13q1 4 3 8q7 11 7 40q0 13 1 21q0 3 1 12q2 16 2 24q0 28 -9 45q-26 54 -41 63q-5 3 -13 9q-4 3 -7 5q-7 4 -20 11q-10 6 -16 10q-4 2 -8 3q-3 0 -5 1t-4 5q-1 4 -5 5q-7 2 -7 5q0 2 8 5l2 1q16 7 35 23q42 37 64 73q4 6 4 24q-1 7 0 10t2 10q4 15 4 26
q0 28 -14 56q-29 59 -90 82q-33 13 -102 13q-80 0 -144 -35q-34 -19 -47 -52q-8 -23 -7 -40q0 -14 -4 -25q-4 -13 -4 -39q0 -25 7 -47q1 -3 2 -8q6 -23 15 -32q8 -8 23 -12q5 -1 12 -11q4 -5 6 -7l7 -7q13 -12 21 -15q25 -8 25 -17q0 -7 -23 -19q-11 -6 -15 -10
q-3 -3 -12 -14q-16 -19 -29 -23q-15 -5 -29 -22q-3 -4 -5 -6q-19 -19 -23 -39q-2 -10 -2 -29v-7q0 -6 -2 -15q-2 -7 -2 -11q0 -86 97 -121q67 -28 139 -28q48 0 94 16q40 16 67 35q22 15 35 37zM292 405q-8 0 -22 8q-8 4 -15 7q-32 11 -53 49q-7 14 -18 19q-4 2 -6 7
q-3 10 0 17q1 3 1 5q0 3 -1 10q-1 16 10 40q1 3 0 7q-1 3 1 7l5 10q4 7 7 12q5 7 22 15q34 15 55 15q27 0 51 -17q16 -13 27 -32q2 -3 6 -14l4 -8q0 -1 3 -1q2 0 2 -1q8 -13 8 -23q0 -4 2 -9q0 -3 -1 -5v-3q0 -33 -25 -58q-4 -4 -14 -15q-14 -15 -23 -23q-2 -2 -3 -5l-3 -3
t-3 -2q-3 0 -5 -2q-2 -1 -2 -4q-1 -3 -10 -3zM384 88q-8 -15 -24 -25q-21 -13 -43 -16q-8 -1 -24 0h-14h-9q-21 0 -30 3q-24 8 -45 45q-4 6 -10 21q-3 9 -6 14q-7 11 -7 23q0 2 -2 7q-3 7 -3 12q0 27 15 50q12 19 40 44l2 2q8 8 21 17q5 2 7 4q2 1 7 6q6 7 10 7q3 0 7 -3
t10 -5q6 -1 15 -8q5 -4 9 -7q31 -20 75 -66l3 -3q9 -10 9 -21q0 -2 2 -4q3 -3 3 -8q0 -24 -2 -33q-2 -7 -4 -21q-4 -21 -12 -35z" />
    <glyph glyph-name="nine" unicode="9" 
d="M483 566q-11 24 -43 65q-5 5 -8 9q-46 56 -116 56q-16 0 -33 1q-10 1 -16 1q-25 0 -62 -11q-7 -2 -9 -3q-36 -10 -55 -13q-21 -3 -21 -24q-1 -19 -23 -34q-14 -9 -26 -28q-20 -29 -20 -54q0 -10 -5 -24q-6 -18 -6 -36q0 -6 3 -11q3 -6 3 -19q0 -32 19 -72q19 -42 58 -42
q5 0 17 -13q5 -6 8 -8q42 -27 84 -27q30 0 58 14q22 11 42 11q11 0 15 -5q6 -7 -2 -23q-4 -7 -11 -25q-12 -30 -21 -45q-4 -7 -12 -15l-7 -7q-4 -4 -13 -15q-18 -21 -26 -27q-4 -3 -17 -12q-14 -9 -23 -17q-15 -13 -21 -26q-7 -15 -21 -15q-5 0 -10 1q-9 1 -22 -3
q-12 -4 -25 -14q-6 -5 -10 -7t-9 -7q-4 -4 -8 -6q-12 -7 -12 -20q0 -7 12 -15q9 -6 35 -6q56 0 91 27q9 7 31 18q19 9 27 15q17 15 40 23q17 6 36 18q6 3 11 14q4 6 7 9q7 5 27 18q7 4 10 6q16 12 23 28q7 21 15 40q2 5 10 27q14 41 21 57q4 9 10 22q5 12 6 20v12
q-1 15 5 33q7 21 5 79v20q0 49 -16 85zM333 359q-31 -13 -54 -13q-44 0 -94 66q-2 3 -11 15q-20 24 -19 39q2 28 8 55q3 12 3 20q0 30 2 38q3 14 19 30q26 27 91 27q29 0 43 -16l4 -4q46 -51 51 -76q2 -11 2 -32q-1 -13 0 -19q4 -18 -5 -32q-9 -15 -9 -34v-18q0 -31 -31 -46
z" />
    <glyph glyph-name="colon" unicode=":" horiz-adv-x="257" 
d="M109 388q-4 -8 -16 -20q-3 -3 -5 -6q-2 -5 -12 -12q-4 -2 -20 -7q-5 -1 -8 -2q-16 -5 -16 -14q0 -15 19 -23q14 -5 29 -22q2 -2 7 -8q21 -21 25 -36q5 -18 25 -18q12 0 14 10q7 30 16 41q6 9 12 14q3 3 8 7l16 14q2 2 9 6q14 9 14 14q0 14 -23 20q-29 7 -38 27
q-1 2 -6 10q-8 12 -10 18q-5 13 -19 13q-10 0 -21 -26zM132 175q-14 0 -23 -22q0 -2 -1 -3q-2 -5 -8 -9q-5 -5 -9 -11q-7 -10 -16 -13q-5 -2 -12 -8q-5 -4 -10 -7q-1 -1 -7 -3q-13 -5 -13 -18q0 -7 9 -11q6 -3 10 -6q5 -4 15 -9q11 -6 18 -13q16 -16 20 -27q14 -34 29 -34
q14 0 27 40q10 26 45 38q12 3 12 18q0 7 -15 14l-6 3q-5 3 -16 13q-6 5 -8 7q-11 8 -20 45q-4 16 -21 16z" />
    <glyph glyph-name="semicolon" unicode=";" horiz-adv-x="281" 
d="M71 -117q0 -19 15 -19q30 0 63 22q20 13 39 24q29 16 37 53q4 16 4 43q0 11 -9 29q-22 44 -37 63q-23 30 -56 30q-13 0 -22 -11q-8 -9 -17 -17q-2 -2 -11 -9q-11 -10 -18 -19q-8 -11 -8 -22t19 -21q1 -1 7 -4q11 -8 16 -10q7 -3 18 -7q7 -4 10 -5q14 -6 14 -27
q0 -26 -27 -58q-5 -6 -17 -15q-2 -1 -9 -5q-11 -5 -11 -15zM141 412q-17 0 -25 -25q-4 -13 -18 -24q-5 -4 -9 -7q-16 -14 -38 -17q-11 -2 -11 -12q0 -12 27 -24q9 -4 21 -22q4 -5 6 -8t8 -9q9 -10 14 -19q14 -25 29 -25q10 0 16 19q7 23 14 30q8 8 14 16q7 8 24 20q3 2 11 6
q9 5 9 13q0 11 -12 16q-37 18 -41 29q-3 7 -12 19q-4 5 -6 9q-9 15 -21 15z" />
    <glyph glyph-name="less" unicode="&#x3c;" 
d="M481 92q0 17 -32 24q-28 6 -46 12q-91 29 -207 97q-20 11 0 21q28 18 72 39q13 7 41 20q31 14 47 22t53 29q16 9 26 14q3 1 8 4q11 5 18 7q20 7 20 24q0 6 -4 20q-5 17 -25 17q-28 0 -82 -31q-26 -15 -90 -43q-29 -13 -45 -21q-42 -19 -72 -39q-2 -2 -17 -5q-9 -2 -11 -2
q-16 -7 -42 -20q-9 -4 -16 -8q-21 -10 -21 -34q0 -19 16 -30q79 -48 131 -70q34 -14 103 -50q32 -18 51 -27q41 -20 87 -20q19 0 28 19q9 17 9 31z" />
    <glyph glyph-name="equal" unicode="=" 
d="M511 128l-2 30q-3 23 -30 23q-11 0 -34 -1q-20 -1 -32 -1t-25 1q-48 2 -64 2h-12h-5l-94 -4h-29h-17h-51q-72 0 -74 -10q0 -3 -1 -13q-1 -14 -1 -21q0 -14 4 -18q10 -8 80 -8q5 0 23 1q33 1 56 1q22 0 34 -1q65 -4 108 -4q16 0 39 1q8 1 12 1q7 0 37 1q37 2 49 2h7
q22 -1 22 10v4v4zM40 328q0 -1 1 -5q2 -24 11 -24q44 0 66 -2h9q11 0 27 3q13 2 24 2l216 -4h19q22 0 46 2h7h14q24 1 26 13q2 17 5 35q2 9 2 17q0 9 -21 9q-14 -1 -36 -3q-13 -2 -22 -2q-22 -2 -73 -2l-26 -1h-49q-42 0 -52 1q-15 2 -62 2h-25h-13h-7h-16h-16l-40 1
q-10 0 -14 -3q-3 -2 -3 -7z" />
    <glyph glyph-name="greater" unicode="&#x3e;" 
d="M474 274q-7 5 -24 13q-9 4 -14 7q-15 7 -46 26q-33 20 -53 30q-8 4 -30 12q-23 7 -33 15q-23 17 -77 38q-34 13 -51 23q-13 9 -32 9h-6q-10 0 -14 -3q-9 -8 -13 -16q-1 -1 -3 -4q-5 -9 -5 -14q-1 -12 30 -30q50 -29 136 -61q38 -13 107 -56q11 -6 16 -9q11 -6 11 -13
q0 -6 -12 -12q-96 -45 -139 -66q-13 -6 -40 -18q-52 -25 -78 -38q-1 0 -3 -1q-10 -5 -14 -8q-2 -1 -6 -4q-10 -6 -10 -10q0 -6 7 -19q2 -5 3 -7q7 -14 24 -14q39 1 85 28q5 3 16 10q16 9 25 14q11 6 38 17q21 10 33 15q28 13 93 44q52 25 81 38q17 9 17 19q0 29 -19 45z" />
    <glyph glyph-name="question" unicode="?" horiz-adv-x="410" 
d="M313 578q-7 13 -21 22l-3 3q-3 3 -10 8q-12 10 -17 17q-48 64 -109 65q-14 0 -43 -6q-2 -1 -3 -1q-30 -8 -30 -42q0 -19 19 -33q32 -24 87 -11q19 4 40 -21q13 -15 20 -35q4 -12 11 -38q1 -6 2 -10q7 -25 0 -35q-3 -4 -17 -13q-5 -3 -17 -7q-6 -3 -9 -4q-4 -1 -13 -5
q-57 -22 -75 -45q-20 -23 -17 -62q0 -2 -2 -6q-1 -4 -1 -6v-13q0 -24 2 -37q4 -23 31 -26q3 0 10 -1q14 -1 21 -1q22 0 23 37q0 19 1 25q4 22 27 22q20 1 58 18l4 2q46 21 46 76v16q-1 20 3 38q1 6 13 20q8 10 8 16q0 21 -29 58q-8 10 -10 15zM130 139q-10 -21 -50 -46
q-2 -1 -8 -5q-12 -6 -12 -16q0 -8 27 -23q9 -5 13 -7q27 -18 37 -42q7 -18 19 -18q11 0 17 11q3 4 5 8q3 4 9 13q8 14 12 18q15 17 25 23q24 12 24 29q0 10 -28 24q-25 12 -35 30q-13 26 -28 26q-14 0 -27 -25z" />
    <glyph glyph-name="at" unicode="@" horiz-adv-x="873" 
d="M80 273q-1 -6 -4 -17q-6 -17 -6 -32q0 -53 2 -79q5 -77 38 -118q92 -118 186 -142q68 -17 141 -17q102 0 141 18q46 21 88 47q19 12 19 30q0 24 -12 24q-19 0 -66 -25q-46 -24 -96 -36q-3 -1 -18 -5q-32 -9 -51 -9q-21 0 -60 12q-70 24 -111 61q-34 32 -60 83
q-13 25 -36 82l-2 6q-4 11 -2 16q5 11 5 26q0 20 -6 39q-2 6 -2 16t3 17l6 18q16 47 28 70q10 20 38 63q13 20 20 32q35 61 129 91q28 9 66 9q25 0 76 -7q25 -4 38 -5q11 -1 23 -10q3 -2 12 -9q51 -37 69 -66q3 -5 10 -18q18 -31 29 -46q18 -24 18 -57q0 -13 -2 -36
q-1 -12 -1 -18q-2 -24 -5 -36q-2 -6 -4 -23q-4 -22 -10 -31q-15 -23 -51 -64q-9 -10 -14 -16q-6 -8 -21 -14q-9 -4 -19 -4q-32 0 -29 39q0 11 8 31q11 25 28 85q7 27 13 44q17 48 17 110q0 27 -22 27q-5 0 -19 -2h-2q-11 -2 -15 -11q-5 -15 -18 -15q-8 0 -16 6
q-18 14 -37 14q-14 0 -42 -9q-4 -1 -6 -2q-26 -9 -61 -36q-24 -19 -39 -27q-16 -9 -21 -17q-40 -51 -58 -92q-18 -39 -27 -83q-6 -30 -6 -40q0 -31 21 -48q23 -18 69 -18q52 0 88 28q15 11 31 24q11 9 13 9q5 0 8 -12q7 -32 19 -42t42 -10q60 0 97 12q94 30 145 130
q23 47 23 129q0 132 -115 214q-59 42 -152 63q-52 10 -78 10q-30 0 -54 -8q-32 -11 -80 -20q-46 -9 -91 -46q-2 -2 -9 -7q-15 -13 -25 -18q-44 -22 -79 -88q-3 -5 -11 -18q-11 -18 -15 -29q-15 -47 -21 -97zM461 177q-12 -16 -38 -40q-22 -19 -34 -19q-22 0 -22 22
q0 46 24 102q2 5 5 17q2 9 3 12q26 43 82 79q16 9 26 9q8 0 15.5 -12t6.5 -22q-13 -62 -37 -101q-2 -4 -10 -16q-13 -20 -21 -31z" />
    <glyph glyph-name="A" unicode="A" horiz-adv-x="761" 
d="M303 199q5 -5 17 -18q12 -12 26 -12q17 0 27 15q8 13 17 19q1 1 3 2q15 10 47 10q22 0 29 -35q1 -5 10 -30q24 -66 24 -83q0 -9 -28 -15q-2 -1 -3 -1q-2 0 -7 -1q-27 -6 -27 -26q0 -21 28 -21q7 0 41 1q41 2 61 2q21 0 58 -6q20 -3 28 -3l17 -1q44 -2 68 1q13 2 13 18
q0 26 -30 33q-7 2 -26 6q-28 5 -38 14q-18 15 -28 59q-4 16 -26 69q-13 34 -19 51q-4 11 -19 41q-13 25 -17 37q-4 9 -12 37q-7 24 -11 35q-1 5 -9 14q-10 14 -14 24q-5 13 -12 35q-8 29 -18 54q-9 21 -25 75q-4 13 -5 16q-1 2 -4 9q-13 26 -17 39q-3 10 -3 13v7q0 8 -11 13
q-9 3 -20 3q-17 0 -27 -10q-1 -1 -5 -6q-5 -6 -8 -9t-12 -10q-11 -9 -16 -20q-3 -8 -7 -38q-2 -17 -4 -23q-1 -4 -8 -17q-4 -5 -5 -8q-17 -41 -23 -54q-11 -26 -37 -87q-16 -38 -25 -59q-2 -5 -5 -22q-2 -13 -4 -18q-5 -12 -14 -21q-3 -3 -6 -10q-1 -1 -1 -2
q-15 -36 -35 -97q-10 -29 -14 -37q-3 -7 -9 -19q-3 -6 -9 -22q-17 -43 -59 -52q-38 -8 -38 -28q0 -13 18 -24q4 -2 28 -1h29q9 0 26 -5q14 -5 23 -5q80 0 92 12q5 5 5 16q0 22 -35 26q-5 1 -8 1q-27 5 -17 32q4 11 8 25l3 9q3 9 11 29q9 23 13 34q1 2 4 12q9 29 27 29
q38 0 59 -21zM276 275q-22 0 -22 12q0 4 4 9q5 6 9 16q3 9 7 26q2 13 6 21q2 5 8 18q14 31 20 49q6 16 14 40q6 20 12 36q0 1 1 3q3 10 11 10t14 -13q11 -21 20 -43q6 -14 10 -42q2 -13 3 -19t6 -12q7 -8 11 -21q1 -3 2 -13q4 -28 9 -45q2 -6 10 -19q6 -9 6 -13q0 -8 -23 -8
q-11 0 -26 16q-7 8 -12 13q-10 9 -28 9q-8 0 -26 -14q-22 -16 -46 -16z" />
    <glyph glyph-name="B" unicode="B" horiz-adv-x="611" 
d="M118 215q0 -9 4 -29q3 -17 3 -24q0 -11 -4 -27q-3 -18 -3 -34q0 -31 -33 -46q-5 -2 -9 -4q-3 -1 -13 -5q-33 -13 -33 -25q0 -22 17 -22q8 0 20 3q10 3 20 3q12 0 33 -3q26 -3 52 -3q9 0 38 3q47 4 68 3q11 0 25 -5q12 -4 22 -4q11 0 42 8q17 4 29 6q6 1 20 2q15 1 23 4
q148 49 148 182q0 38 -10 62q-6 13 -13 22q-2 3 -10 13q-8 11 -13 17q-14 16 -39 32q-25 17 -52 25q-18 5 -18 10q0 9 27 24q16 8 25 15q28 21 36 44q15 38 15 68q0 9 -7 26q-3 8 -4 12t-1 12q-1 11 -7 21q-25 39 -67 54q-5 2 -15 5q-15 5 -22 7q-5 1 -14 6q-7 3 -12 4
q-33 7 -98 7q-25 0 -60 -4q-29 -4 -47 -4q-8 0 -22 3q-17 4 -34 4q-8 0 -28 -3q-16 -3 -23 -3h-7q-33 1 -33 -15q0 -13 32 -26q8 -4 13 -6q24 -9 33 -28q18 -38 22 -102q0 -13 -5 -38q-5 -21 -5 -40q0 -10 4 -38q5 -33 4 -48q0 -13 -7 -46q-7 -37 -7 -75zM346 403
q-6 -2 -17 -2q-6 -1 -11 -2q-6 -2 -20 -7q-21 -8 -30 -8q-11 0 -11 10q0 4 2 12q2 10 2 16q0 5 -7 22q-12 30 -12 54q0 6 5 22q5 20 5 37v10q-1 44 10 53q18 16 31 16q16 0 36 -11q5 -3 18 -9q19 -8 29 -16q32 -30 32 -62q0 -7 -2 -16q-1 -7 -1 -13v-19q1 -23 -7 -37
q-22 -40 -52 -50zM260 332q16 9 35 9q13 0 40 -7q5 -1 8 -2q1 0 7 -2q37 -10 54 -26q12 -12 24 -33q1 -1 2 -3t7 -10q8 -10 10 -14q10 -23 10 -56q0 -46 -21 -76q-43 -63 -114 -63q-37 0 -59 25q-3 3 -10 9q-9 8 -9 13q0 7 5 16q1 3 2 4q5 12 5 29q0 6 -3 15q-4 11 -4 20
q0 4 -2 16q-3 13 -3 22q0 8 2 25q3 22 3 34q0 49 11 55z" />
    <glyph glyph-name="C" unicode="C" horiz-adv-x="716" 
d="M676 178q-9 20 -22 20q-11 0 -22 -12q-9 -10 -38 -54q-12 -19 -17 -25q-45 -61 -127 -61q-50 0 -121 28q-80 31 -130 139q-4 9 -12 31q-8 23 -15 34q-7 13 -4 42q2 19 -1 29q-18 68 18 122q3 5 8 18q3 8 5 12q37 74 78 105q27 20 91 36q39 9 74 9q57 0 107 -38
q42 -34 57 -86q5 -24 35 -24q24 0 24 31q0 10 -2 30q-1 7 -1 11q0 5 -2 15q-3 28 -3 42q-1 28 -29 31q-13 2 -41 7q-23 4 -36 6q-17 3 -50 11q-47 12 -77 12q-27 0 -94 -8q-21 -3 -33 -4q-22 -3 -33 -9q-15 -7 -40 -24q-15 -11 -26 -17q-101 -59 -130 -135q-24 -64 -31 -107
q-5 -32 -5 -106v-8q0 -12 11 -34l6 -12q10 -26 15 -38q1 -2 4 -9q15 -33 24 -43q44 -50 101 -96q36 -30 74 -35q13 -2 40 -13q4 -1 6 -2q34 -14 80 -14q8 0 21 1q10 1 19 1q5 0 16 4q14 5 33 6q6 0 20 5q15 6 23 5q11 -1 35 8q8 4 13 5l22 5l19 4q31 6 35 44q3 25 20 49
q13 17 13 31q0 15 -5 25z" />
    <glyph glyph-name="D" unicode="D" horiz-adv-x="778" 
d="M749 376q0 29 -23 92q-7 21 -35 64l-10 15q-10 19 -23 29q-77 67 -174 92q-9 2 -34 6t-38 9q-22 8 -42 8q-10 0 -22 -3q-15 -4 -46 -4q-27 0 -41 -2q-45 -8 -95 -8q-26 0 -70 7q-15 3 -21 3q-13 0 -26 -7q-13 -8 -13 -18q0 -6 8 -9q13 -6 39 -19q39 -21 47 -54
q4 -16 2 -59q-1 -15 -1 -23q0 -15 2 -33q1 -16 1 -26q0 -18 -1 -33v-30q0 -6 -1 -42v-35t3 -19q5 -22 5 -60q0 -25 -13 -65q-5 -14 -5 -20q0 -10 6 -20q5 -9 5 -20q0 -39 -47 -39q-2 0 -13 2q-13 3 -16 2q-23 -2 -23 -22q0 -34 26 -34q20 0 58 2q19 1 29 1q15 1 51 0h19
q5 0 18 -2q10 -2 15 -2q22 0 70 -3q40 -3 62 -3q23 0 57 13l18 6q57 17 103 28q25 7 43 31q18 22 33 30q29 15 61 73q4 8 7 13q13 22 25 72q2 8 7 30q13 55 13 86zM351 45q-52 0 -71 49q-15 39 -15 64q1 46 -9 65q-2 4 -7 11q-4 6 -4 10q0 8 8 19q2 3 3 5q8 10 8 22
q0 9 -8 20q-6 9 -6 18q0 14 1 26q0 8 3 24q2 17 2 28q0 3 -1 16q-3 22 -2 38q3 47 13 114q6 35 20.5 47t52.5 12q144 0 237 -136q10 -13 13 -34t13 -58q11 -37 12 -65q0 -3 1 -24q2 -61 -18 -83q-8 -8 -16 -29q-4 -9 -7 -14q-2 -4 -8 -12q-9 -12 -12 -19q-14 -29 -38 -42
q-7 -4 -12 -7q-15 -8 -26 -20q-12 -12 -29 -18q-78 -27 -98 -27z" />
    <glyph glyph-name="E" unicode="E" horiz-adv-x="642" 
d="M581 159q-20 0 -29 -14q-9 -13 -19 -35q-12 -23 -31 -36q-58 -38 -83 -38q-11 0 -41 3q-24 3 -35 3q-38 0 -62 29q-18 24 -12 58q7 33 9 76q1 20 -11 54l-3 9q-6 18 7 29q25 20 109 16q21 0 34 -9q12 -8 12 -36q0 -6 7 -17q1 -3 2 -5q8 -15 24 -15q17 0 26 5t9 30
q0 10 1 30v28q0 43 -8 84q-6 29 -22 29q-13 0 -21 -11q-13 -16 -28 -31q-26 -27 -67 -27q-7 0 -24 -1h-21q-27 0 -27 28q-1 25 0 77v39q0 14 -6 29q-1 2 -2 5q-8 16 -8 42q0 33 33 33q7 0 25 -3q14 -2 23 -2t30 3q11 2 16 2q32 0 62 -30q14 -14 35 -44q1 -2 6 -9
q10 -15 24 -15q21 0 27 25q6 26 6 39q0 21 -13 35q-4 4 -6 14q0 4 -1 6q-5 18 -9.5 21.5t-23.5 4.5q-13 0 -37 1q-48 0 -73 2q-42 4 -62 4q-37 0 -66 -4q-5 -1 -23 -3q-40 -4 -62 -4q-39 0 -67 9q-16 4 -25 4q-35 0 -35 -23q0 -14 9 -19q12 -7 34 -11q7 -1 24 -4
q14 -3 21 -4q12 -3 14 -13q1 -6 5 -18q5 -19 5 -31q0 -5 -3 -16q-4 -15 -4 -29q0 -8 1 -25q1 -26 0 -41q-1 -21 -8 -38q-2 -6 -2 -9q0 -2 4 -11q8 -15 8 -30q0 -19 -2 -34q-1 -5 -1 -8q-2 -14 -3 -44q-3 -44 -7 -66q-6 -32 -6 -48q0 -19 6 -37q6 -20 -2 -34t-23 -23
q-8 -5 -29 -14q-5 -3 -8 -4q-4 -2 -12 -5q-12 -5 -22 -10q-14 -6 -14 -16q0 -14 36 -17q63 -3 148 -3q9 0 28 4q16 3 25 3q44 1 133 1q18 0 61 -3q36 -3 54 -3q58 0 76 54q18 52 18 89q0 23 -28 23z" />
    <glyph glyph-name="F" unicode="F" horiz-adv-x="566" 
d="M258 292q0 21 23 21h87q36 1 54 -32q21 -35 45 -35q10 0 15 8q3 4 2 13v6q2 12 2 32q0 4 -1 18q-1 24 -1 39q0 13 3 34q1 4 3 11q3 9 3 20q0 13 -21 13q-39 0 -47 -21q-2 -6 -6 -16q-2 -6 -3 -8q-10 -22 -20 -22q-4 0 -15 2q-13 3 -26 3q-17 0 -49 -4q-30 -4 -37 0
q-10 6 -10 40q0 21 2 59q2 32 2 50q0 26 -7 53q-6 24 -1 32q6 9 12 11q24 8 77 8q15 0 37 -4q10 -2 16 -3q54 -8 76 -63q11 -28 37 -28q19 0 21 26q3 26 3 83q0 38 -37 38q-10 0 -34 -2q-20 -1 -32 -1q-79 0 -115 1q-17 0 -53 4q-40 3 -60 3q-24 -1 -70 -4l-11 -1
q-6 -1 -19 -1q-20 -2 -32 -4q-22 -5 -22 -17q0 -6 11 -13q17 -10 28 -10q25 0 33 -27q19 -60 19 -104q0 -16 -2 -47q-3 -38 -3 -64q0 -13 4 -29q1 -5 1 -7q0 -5 -2 -15q-2 -8 -2 -12q0 -5 -3 -37q-5 -59 -5 -81q0 -6 2 -23q2 -14 2 -22q0 -13 -5 -37q-2 -13 -3 -20
q-3 -26 -7 -33q-7 -16 -40 -23q-3 -1 -12 -1q-13 0 -20 -4q-12 -7 -12 -26q0 -14 14 -14q3 0 10 -1q14 -1 33 -1q9 0 26 1q21 2 37 2q7 0 37 -5q36 -5 47 -5q13 0 34 1q17 1 30 1h9q24 -1 30 1l5 2q13 3 14 17q0 17 -14 25q-17 9 -46 14q-26 3 -33 10q-6 6 -6 34
q-1 68 -2 146v45z" />
    <glyph glyph-name="G" unicode="G" horiz-adv-x="755" 
d="M666 163q0 6 -1 15v12q-2 21 8 37q9 15 29 26q21 11 21 22q0 8 -8 14q-25 18 -58 18q-11 0 -35 -5q-20 -4 -31 -4q-6 0 -13 3q-14 6 -36 6q-15 0 -48 -5q-27 -4 -42 -4q-17 0 -17 -12t6 -20q17 -19 42 -19h8q26 1 33 -9q20 -29 20 -51q0 -8 -6 -27q-4 -10 -4 -14
q0 -12 4 -25t2 -28q0 -4 -3 -8q-5 -10 -9 -30q-2 -8 -20 -8q-12 0 -30 -9q-15 -7 -26 -7q-10 0 -27 6q-3 2 -5 2q-16 5 -46 10q-40 6 -65 20q-31 18 -39 35q-9 19 -21 30q-46 41 -69 88q-8 17 -12 56q-2 33 -9 49q-9 24 2 57q14 46 38 98q3 7 11 31q7 24 12 29q14 17 54 45
q7 4 10 7q65 51 140 51q21 0 54 -7q97 -24 124 -99q0 -1 2 -5q5 -15 8 -22q9 -17 34 -17q34 0 34 31q0 11 -7 27q-12 33 -17 56q-1 3 -2 14q-1 17 -11 23q-3 2 -11 6q-19 12 -30 12q-24 0 -66 11q-27 8 -43 10q-5 1 -25 4q-48 7 -76 7t-47 -6q-4 -1 -15 -5q-27 -9 -41 -10
q-34 -1 -63 -18q-87 -50 -128 -102q-46 -59 -46 -79q0 -19 -6 -45q-1 -5 -2 -8q-1 -7 -5 -24q-11 -50 -11 -69q0 -57 7 -90q1 -5 7 -16q1 -3 2 -4l8 -15q23 -40 36 -60q1 -2 4 -6q18 -25 31 -33q10 -6 17 -28q1 -1 1 -2q3 -11 13 -17q3 -2 17 -9q29 -15 46 -21q12 -4 38 -11
q22 -5 27 -9q4 -3 10 -9q13 -11 24 -13q34 -7 67 -7q25 0 54 8q38 12 59 12q5 0 7 -3q3 -3 6 -3q25 0 54 8q38 12 112 42q12 5 25 20l5 5q7 8 7 14q0 4 -21 9q-17 3 -24 24q-3 13 -3 42v5z" />
    <glyph glyph-name="H" unicode="H" horiz-adv-x="879" 
d="M385 314q8 -3 30 -19q23 -18 34 -18q20 0 36 19q13 18 33 20q13 1 38 5q28 3 38 3q17 0 26 -9t9 -77q0 -26 -7 -67q-2 -15 -2 -21q0 -14 2 -24q2 -6 1 -19q-1 -22 -31 -48q-4 -3 -17 -10q-27 -15 -27 -25q0 -21 64 -21q6 0 17 2q14 2 26 2q21 0 51 -4q16 -2 25 -2
q76 0 105 10q8 3 8 10q0 29 -30 34q-38 6 -47 14q-6 5 -15 40q-12 46 -12 74q0 9 3 30q3 25 3 40l3 190q2 104 5 151q3 38 45 38q44 0 44 26q0 27 -134 27q-13 0 -49 -5q-30 -4 -46 -4h-2q-15 0 -41 6q-15 3 -21 3q-29 0 -29 -19q0 -27 59 -37q25 -5 32 -10q10 -7 16 -113
q1 -21 -5 -45q-2 -9 -2 -15q0 -13 4 -29q2 -11 2 -19q0 -17 -36 -17q-9 0 -23 2q-11 2 -23 2q-7 0 -15 -1q-6 -1 -11 -1q-12 0 -37 20q-20 16 -38 16q-17 0 -46 -24q-15 -13 -26 -13q-17 0 -41 2q-7 1 -12 1h-8q-21 -1 -26 4q-21 21 -21 42q0 6 4 19q3 10 3 16q0 19 1 55v29
q2 63 18 71q6 3 24 9l24 9q6 3 16 5q16 4 16 15q0 17 -30 17q-10 0 -28 1q-23 1 -39 1q-13 0 -50 -2q-30 -1 -45 -1q-17 0 -39 1q-18 1 -37 1q-47 0 -47 -20q0 -12 48 -28q31 -10 41 -28q8 -14 8 -107v-36q0 -7 1 -30q2 -39 1 -51q-1 -30 -5 -80q-3 -26 -3 -40t4 -28
q2 -8 2 -14q0 -2 -1 -8q-4 -16 -4 -33v-84q0 -27 -34 -28q-78 -2 -78 -27q0 -29 31 -33q53 -5 82 -5q15 0 27 4q9 4 27 4q25 0 54 -3q24 -2 54 -2q53 0 53 25q0 27 -32 27q-8 0 -21 -2q-7 -1 -11 -1q-10 0 -19 33q-1 1 -1 2q-9 25 -7 76v22q0 22 -14 47q-5 8 -5 14t9 20
q8 11 8 17q0 3 -3 13q-8 21 2 27q13 7 57 1q12 -2 33 -3q19 -2 26 -4z" />
    <glyph glyph-name="I" unicode="I" horiz-adv-x="399" 
d="M262 127q0 9 -6 20q-4 7 -4 13q0 9 2 17q3 11 3 37q0 7 -1 31v30q0 9 3 22q3 10 3 17q0 29 -9 68q-5 21 -5 32q0 9 9 29q7 17 7 26q0 11 -9 35q-7 19 -7 30q0 10 12 38q2 5 5 18q3 10 5 15q5 12 26 20q5 2 18 3q10 0 15 2q36 12 36 25q0 18 -57 18q-19 0 -63 2
q-36 1 -50 1q-11 0 -47 5q-19 3 -25 3q-22 0 -42 -5q-7 -2 -12 -3q-34 -5 -34 -21q0 -13 18 -19q35 -11 52 -15q24 -5 28.5 -10.5t4.5 -28.5q1 -17 -5 -49q-4 -24 -4 -35q0 -16 10 -38q5 -12 5 -19q0 -13 -8 -50q-7 -29 -7 -47q0 -36 4 -50q1 -2 4 -10q5 -12 5 -17
q0 -13 -4 -39q-2 -13 -8 -36q-5 -23 -5 -28q0 -12 3 -34q2 -18 2 -32q-1 -42 -45 -50q-2 0 -11 -1q-34 -3 -34 -22q0 -14 49 -20q9 -1 37 -5q32 -5 39 -5q5 0 22 6q14 5 21 5q18 0 63 -6q35 -4 56 -4q36 0 36 23q0 19 -26 29l-24 8q-34 12 -43 18t-8 45v8z" />
    <glyph glyph-name="J" unicode="J" horiz-adv-x="423" 
d="M392 660q0 8 -12 14q-5 3 -17 3q-3 1 -5 1q-21 5 -49 5q-13 0 -40 -2q-23 -2 -34 -2q-28 0 -55 4q-6 1 -9 1q-5 0 -16 -3q-13 -4 -22 -4q-12 0 -33 5q-11 3 -15 3q-16 0 -23 -11q-9 -13 -9 -21q0 -7 23 -13q9 -2 28 -5q7 0 11 -1q49 -9 52 -59q1 -22 1 -54q1 -14 0 -41
q-1 -55 6 -83q2 -11 1 -18q-1 -12 -6 -21q-5 -12 -5 -19t3 -16q9 -28 9 -56q1 -18 -2 -53q-1 -18 -1 -27q0 -11 -2 -35q-2 -19 -2 -30q-3 -84 -5 -117q-1 -8 -2 -17q-1 -6 -1 -9t1 -5q1 -3 1 -7q0 -5 1 -16q1 -12 1 -25q0 -33 -36 -62q-10 -7 -18 -7t-16 12l-4 8q-3 5 -4 7
q-16 30 -39 31q-12 0 -31 -6q-5 -2 -12 -3q-10 -3 -17 -6q-24 -10 -24 -26q1 -40 15 -55t51 -15q8 0 38 2q24 1 30 1q48 0 72 18q4 3 13 10q17 14 31 23q12 9 26 30q5 7 12 34q6 23 10 29q1 2 9 14q14 22 14 47q0 15 -4 27q-2 5 -2 8t2 10q2 4 2 7q1 10 6 34q6 31 6 51
q0 24 -8 45q-3 9 -3 18q0 10 4 24q9 32 3 103q-1 4 -1 7q0 5 -3 19q-5 35 5 53q4 7 2 24v9q2 86 0 129q-1 33 28 43q5 2 17 6q9 3 14 5q3 1 10 4q13 5 19 8q10 5 10 14z" />
    <glyph glyph-name="K" unicode="K" horiz-adv-x="815" 
d="M357 25q0 14 -20 18q-1 0 -7 2q-14 3 -25 3q-20 0 -35 18q-19 23 -19 54q1 61 1 188v5q-1 4 0 6q1 4 7 4q5 0 22 -12q38 -29 48 -48q9 -18 17 -23q32 -19 61 -33q20 -10 33 -30q1 -2 6 -10q17 -27 30 -34q26 -12 47 -40q1 -2 3 -4q2 -3 12 -9q9 -4 9 -12q0 -6 -24 -8
q-24 -1 -42 -6q-14 -2 -14 -22q0 -19 19 -22q6 -1 17 -1h129q15 0 85 -2q38 -1 44 -1h6q19 0 27 3q7 4 7 20q0 18 -14 21q-5 1 -12 2q-9 2 -15 4q-7 3 -25 9q-65 21 -89 49q-23 27 -73 71l-6 5q-8 7 -21 24q-6 7 -9 11q-17 17 -38 28q-29 16 -48 34q-7 6 -21 23q-6 7 -9 10
q-6 6 -18 13q-8 5 -13 9q-6 5 -18 18q-1 2 -2 3q-10 11 -10 21t9 23q28 40 85 81q45 32 83 71q50 51 127 75l18 6q34 12 53 12q11 0 11 10q0 13 -18 15q-7 0 -20 3q-13 2 -22 2q-27 0 -88 1h-77q-23 0 -35 -3q-11 -4 -11 -11q0 -9 8 -13q9 -4 28 -10q9 -3 14 -5q6 -2 6 -6
q0 -5 -9 -13q-7 -6 -12 -11q-3 -2 -5 -4l-24 -21q-33 -28 -48 -42q-29 -26 -86 -78q-29 -26 -43 -39q-14 -12 -42 -34q-4 -3 -7 -3q-2 0 -2 8l-1 35q-1 91 1 140q1 17 20 53q7 13 37 17h3q9 1 18 9q1 0 3 2q6 4 6 10q0 10 -15 12q-9 1 -49 5q-61 6 -86 6q-13 0 -45 -2
q-26 -2 -42 -2q-10 0 -25 2q-8 1 -13 1q-11 0 -18 -6q-13 -9 -13 -22q0 -16 19 -16q14 0 21 -1q24 -4 33 -15t10 -35q1 -10 6 -31q1 -5 2 -8q3 -20 9 -37q9 -25 9 -51q0 -34 -9 -60q-5 -16 -7 -53q-2 -22 -2 -36q0 -4 4 -20q7 -29 7 -57q0 -19 -2 -59q-2 -33 -2 -52
q0 -35 -19 -54q-14 -16 -40 -20q-12 -2 -31 -19q-7 -5 -7 -12q0 -8 14 -10l13 -2q19 -3 33 -5q22 -2 39 -2q11 0 21 3q22 7 45 7q19 0 49 -5q20 -4 35 -4q28 0 55 5q18 3 18 16z" />
    <glyph glyph-name="L" unicode="L" horiz-adv-x="607" 
d="M311 63q-38 0 -49 36q-11 32 -12 56q0 6 -2 17q-2 12 -2 20q0 11 4 35q3 21 3 32q0 22 -1 63q-2 43 -1 72q0 4 1 15q1 9 1 13q0 5 -3 19q-2 11 -2 16q0 20 2 63q1 35 1 55q0 42 20 59q11 10 41 16q19 4 19 10q0 22 -28 22q-14 0 -47 -2q-26 -1 -38 -1q-10 0 -28 5
q-11 3 -15 3q-7 0 -15 -4q-7 -3 -17 -3q-9 0 -29 6q-23 8 -41 8q-33 0 -33 -32q0 -18 23 -28q2 -1 9 -4q23 -9 31 -17q22 -24 22 -83q0 -19 -7 -39q-4 -10 -4 -19q0 -10 5 -22q5 -15 5 -35q0 -22 -6 -66q-4 -30 -4 -44t5 -35q4 -17 4 -30v-39q-1 -55 0 -80q0 -45 -45 -67
l-8 -4q-36 -16 -36 -31q0 -12 18 -12q7 0 22 1q8 1 10 1q32 0 87 -4q46 -4 77 -4q12 0 39 4q22 4 34 4q9 0 28 -4q15 -4 23 -4q14 0 56 5q34 4 47 4t31 -5q15 -4 28 -4q15 0 22 16q36 72 36 126q0 20 -24 20q-34 0 -44 -21q-20 -42 -40 -54q-39 -26 -76 -26q-6 0 -15 2
q-7 1 -13 1q-9 0 -38 -1q-23 -1 -31 -1z" />
    <glyph glyph-name="M" unicode="M" horiz-adv-x="1007" 
d="M246 406q0 3 -1 9q-1 12 -1 25v24q0 10 4 11q4 0 4 -6v-9q0 -37 46 -101q32 -44 48 -92q13 -36 48 -107q39 -80 53 -123q10 -33 48 -33q18 0 29 27l3 6q5 11 13 36q14 35 22 53q16 36 53 109q23 48 35 73q4 8 18 33q24 42 30 67t24 49q0 1 2 3q7 13 12 13q6 0 6 -10v-19
q1 -65 0 -195v-97q0 -31 -1 -46q-3 -51 -52 -51q-22 0 -34 -8q-11 -8 -11 -20q0 -11 12 -14q18 -5 34 -5q13 0 48 2q30 1 43 1q32 0 74 -6q23 -4 38 -4q13 0 39 2q15 1 21 1q24 0 24 31q0 20 -21 20q-4 0 -11 -1h-9q-12 0 -44 15q-23 11 -23 54q0 15 -2 45q-1 12 -3 30
q-3 26 -3 44q0 8 1 21q1 10 1 20q0 39 -14 81q-4 14 -2 36q0 5 3 23q4 40 4 64q0 20 -2 51q-1 16 -1 29q0 25 25 56q21 27 59 27q15 0 15 13q0 24 -37 24q-59 0 -95 -3q-31 -2 -48 -15q-37 -29 -49 -63q-6 -18 -5 -38q2 -11 -3 -19q-4 -7 -12 -12q-10 -8 -20 -25
q-36 -72 -54 -107q-2 -3 -5 -12q-10 -23 -18 -32q-39 -49 -55 -110q-2 -6 -10 -20q-4 -9 -6 -14q0 -1 -2 -7q-4 -11 -8 -11q-5 0 -9 7q-2 3 -3 5q-5 7 -15 23q-9 14 -14 21q-1 2 -4 5q-6 6 -7 9t1 9q2 5 2 9q0 6 -9 19q-3 4 -5 7q-30 51 -43 89q-13 41 -35 70q-19 25 -24 42
q-16 57 -64 138q-18 33 -42 33q-4 0 -14 -1q-12 -1 -20 -1q-14 0 -40 2q-14 1 -22 1q-18 0 -56 -7q-5 -1 -9 -2q-12 -3 -12 -11q0 -11 11 -17q26 -14 46 -22q3 -1 9 -4q23 -10 23 -32q0 -10 -1 -33q-1 -18 -1 -27q0 -10 1 -33v-29q0 -15 6 -43q3 -16 3 -22q0 -11 -3 -22
q-5 -17 -5 -29q0 -13 5 -31q4 -14 4 -27q0 -18 -11 -33q-10 -13 -10 -27q0 -8 5 -26q5 -15 5 -24q0 -10 -24 -68q-6 -15 -7 -18q-14 -35 -54 -35q-3 0 -13 1q-9 1 -12 1q-22 0 -22 -35q0 -21 36 -21q14 0 41 -1h36q26 0 97 -3q38 -2 55 -2q26 0 26 14q0 20 -12 33
q-6 6 -19 9q-58 15 -58 79v21q1 27 1 47q0 5 -3 36q-2 25 -2 29q0 20 6 59q2 13 3 19q5 28 5 56z" />
    <glyph glyph-name="N" unicode="N" horiz-adv-x="865" 
d="M225 494q0 9 6 9q8 0 18 -8q4 -3 6 -14q1 -7 3 -12t15 -16q6 -5 9 -8q21 -24 39 -32q15 -6 18 -13q11 -23 35 -54q8 -11 30 -40q14 -20 17 -23q3 -4 13 -12q16 -13 30 -26q51 -49 78 -97q4 -8 13 -15q46 -30 75 -86q23 -44 79 -44q20 0 24 24q6 35 6 70v27q1 50 -1 76
q0 6 -6 21q-4 12 -4 19t7 22q5 13 5 20v17q-1 32 0 43q2 42 2 73q0 17 -6 47q-2 11 -2 14t3 13q6 19 6 39q0 8 -3 27q-1 9 -1 14q-1 26 16 45q31 31 61 31q20 0 20 16q0 18 -21 25q-16 6 -47 6q-11 0 -32 -6q-6 -1 -9 -2q-45 -8 -118 -14q-17 -2 -17 -10q0 -10 18 -20
q6 -4 10 -7q2 -1 9 -9q26 -23 31 -38q5 -18 3 -60v-10q0 -9 6 -22q4 -7 4 -11q0 -9 -5 -23q-5 -11 -5 -18q0 -10 2 -30q2 -16 2 -23q0 -15 -6 -50q-5 -29 -5 -47t4 -34q5 -25 5 -33q0 -16 -8 -16q-6 0 -46 47q-6 7 -8 9q-7 8 -26 27q-25 25 -37 41q-3 4 -8 16t-9 18
q-17 26 -28 34q-6 5 -19 10q-6 2 -8 4q-19 22 -25 30q-11 14 -30 36q-8 10 -15 18q-36 46 -68 77q-4 4 -22 18q-7 6 -10 9q-6 5 -11 19q-2 6 -3 7q-4 4 -10 6q-4 1 -6 3q-3 2 -11 7q-6 5 -9 7t-7 6q-8 9 -18 12q-36 10 -70 10q-23 0 -53 -3q-21 -1 -37 -1q-30 0 -30 -17
q0 -9 11 -13q11 -5 36 -8q2 0 7 -1q25 -2 34 -10q6 -5 12 -22q13 -37 17 -72q10 -85 7 -158q-1 -30 -8 -67q-1 -8 -1 -9q0 -4 2 -11q2 -6 2 -10v-24q0 -54 -22 -74l-3 -3q-7 -6 -7 -12q0 -7 14 -11t14 -15q0 -34 -19 -55q-13 -13 -35 -19q-24 -7 -39 -16q-15 -10 -15 -21
t17 -21q8 -4 28 -4h166q18 0 42 5q10 2 16 3q31 5 31 24q0 18 -22 20q-4 0 -13 1q-22 1 -33 3q-21 4 -26 10t-13 34q0 1 -1 6q-4 15 -4 23q0 5 -1 20q-3 38 2 57q6 31 1 74q-5 24 -6 49q0 21 1 64q1 63 0 98z" />
    <glyph glyph-name="O" unicode="O" horiz-adv-x="776" 
d="M731 459q-21 80 -144 171q-35 27 -65 34q-73 17 -131 17q-46 0 -142 -23q-31 -8 -65 -35q-53 -40 -89 -86q-42 -52 -52 -91q-13 -45 -13 -101q0 -60 22 -127q6 -16 8 -24q25 -88 76 -122q5 -3 24 -17q38 -26 63 -40q68 -36 130 -36q7 0 14 1q9 2 27 2q15 0 36 -1h18
q22 0 52 14q10 4 33 15q32 15 50 21q36 14 60 49q2 2 5 9q5 8 9 11q37 27 53 65q12 29 17 57q2 10 8 37q10 52 11 100q0 38 -15 100zM564 130q-48 -73 -77 -84q-30 -12 -89 -12q-58 0 -118 46q-74 56 -102 191q-12 66 -12 96q0 55 12 106q14 56 41 79q10 9 32 28
q32 28 49 42q20 16 35 16q6 0 15 -3q12 -4 29 -4q56 0 112 -44q5 -4 21 -15q28 -19 36 -35q35 -67 54 -134q13 -48 13 -97q0 -100 -51 -176z" />
    <glyph glyph-name="P" unicode="P" horiz-adv-x="594" 
d="M266 437q0 6 -1 19q-1 14 2 24q7 20 5 62v16q0 9 1 27q1 14 1 23q0 22 15 22q6 0 25 -5q12 -4 17 -4q88 -11 99 -100q6 -52 8 -78v-5q0 -12 -4 -19q-21 -38 -45 -75q-7 -10 -20 -12q-18 -4 -55 -7q-5 -1 -9 -1q-1 0 -5 -1q-19 -2 -19 -13q0 -19 10 -26q19 -14 54 -14
q20 0 65 14q20 6 32 8q58 13 80 66q0 1 1 3q6 13 12 17q31 20 31 66q0 12 -1 39v22q0 54 -36 89q-78 76 -126 83q-16 2 -35 6t-40 4q-20 0 -71 -7q-7 0 -25 -3q-17 -3 -28 -2q-12 0 -37 -3q-20 -2 -31 -2q-18 0 -38 12q-9 5 -23 5q-29 0 -29 -27q0 -25 22 -31q5 -1 15 -4
q11 -2 17 -4q54 -17 54 -72q1 -11 -5 -31q-6 -18 -6 -28q0 -7 -3 -14q-2 -4 -2 -7q0 -1 1 -6q2 -8 1 -14q-1 -15 -1 -38v-9q0 -9 1 -21q1 -6 1 -9q4 -41 5 -58q2 -19 1 -58v-39q0 -19 7 -47q4 -19 -2 -37q-2 -4 -10 -15q-9 -12 -9 -16q0 -5 3 -16q5 -15 1 -23q-4 -7 -28 -13
q-9 -3 -32 -5q-19 -3 -32 -7t-13 -19q0 -10 11 -17q7 -4 31 -4q5 0 14 2q7 2 11 2q14 0 44 -4q24 -3 37 -3q5 0 8 2q3 1 9 1q7 0 46 2q71 5 104 5h6q19 -2 19 10q0 16 -13 23q-7 4 -22 8q-6 1 -9 2t-11 2q-11 2 -17 4q-38 12 -29 48q7 36 -6 60q-9 18 -3 32q3 9 3 30
q1 7 1 11q0 5 -1 18q-1 24 3 36q6 19 3 63q-1 11 -1 16q-1 10 2 28q1 8 1 11t-4 15q-3 10 -3 15z" />
    <glyph glyph-name="Q" unicode="Q" horiz-adv-x="779" 
d="M205 45q2 -1 11 -5q20 -10 28 -12l2 -1q6 -1 6 -4q0 -4 -12 -6t-34 -12q-3 -2 -10 -3q-6 -1 -10 -2q-16 -5 -27 -18q-9 -11 -26 -39q-8 -12 -13 -19q-8 -14 -8 -20q0 -8 8 -14q9 -6 19 -6q11 0 20 9q1 1 4 5q7 6 10 9q1 1 3 2q10 9 18 12q24 8 82 8q12 0 39 -2
q14 -1 21 -1q4 0 9 3q3 2 5 2q7 0 20 -14q8 -8 13 -10q29 -9 91 -39q21 -10 34 -16q4 -2 14 -6q42 -18 66 -25q51 -13 93 -13q27 0 51 20q19 16 35 41q8 12 8 22q0 14 -25 14q-12 0 -24 -1q-4 -1 -6 -1q-1 0 -5 -1q-18 -2 -24 -2q-22 0 -93 40q-10 6 -16 9q-55 29 -86 39
q-12 3 -12 8q0 4 31 11q45 12 90 44q19 14 55 58q8 9 13 15q15 18 25 37q19 36 27 60q2 6 10 22q12 22 12 35q0 6 -5 15q-4 7 -4 15q0 6 5 16q5 13 5 31q0 15 -8 51q-6 29 -5 45q1 14 -13 48q-2 4 -3 7q-6 20 -13 25q-19 13 -52 55q-10 14 -17 21q-9 10 -25 21l-20 10
q-15 8 -23 13q-41 29 -85 40q-23 5 -72 5h-5q-11 0 -36 4q-20 4 -31 4q-41 0 -72 -17q-33 -21 -82 -47q-52 -27 -60 -50q-5 -15 -10 -20q-25 -24 -56 -94q-11 -22 -18 -35q-10 -17 -10 -35q0 -8 3 -17q2 -4 2 -8q0 -6 -2 -18q-2 -7 -2 -12q0 -3 -1 -9q-2 -9 -2 -13
q0 -10 6 -32q3 -10 4 -16q14 -54 23 -79q43 -109 142 -157zM432 50q-21 -7 -44 -7q-45 0 -89 34q-79 57 -102 135q-2 7 -12 20q-11 14 -17 44q0 4 -1 7q-4 19 -2 60q1 10 1 16v24q-2 62 15 94q2 4 2 8q0 2 -1 9v7q0 17 10 24q11 9 11 18q1 32 50 63q4 2 13 9q13 9 21 13
q17 10 38 18q12 4 30 4q68 0 106 -33q7 -6 24 -19q18 -15 27 -23q3 -3 14 -12q38 -32 38 -64q0 -8 13 -16q11 -7 11 -28q0 -15 12 -39q11 -25 12 -42q1 -16 -3 -34q-6 -22 -4 -70q3 -70 -40 -128q-7 -8 -22 -28q-13 -16 -20 -24q-29 -36 -71 -36q-8 0 -20 -4z" />
    <glyph glyph-name="R" unicode="R" horiz-adv-x="704" 
d="M266 63q-14 10 -14 33q0 11 3 20q8 29 10 76q0 15 -2 47q-1 27 -1 42v8q0 21 6 21q3 0 13 -4q5 -2 8 -3q38 -14 56 -41q7 -11 24 -34q31 -44 45 -69q25 -44 113 -132q15 -15 37 -23q3 -2 6 -3q21 -8 34 -8q8 0 24 -2q6 0 18 -3t19 -3q13 0 35 10q4 1 6 2q8 3 8 12
q0 8 -7 14q-4 3 -11 5l-6 3q-65 40 -92 75q-8 11 -28 35q-16 19 -24 30q-15 21 -45 72q-14 23 -23 36q-21 35 -43 35q-15 0 -15 10q0 3 11 10l3 3q3 2 10 3q1 1 2 1q29 8 50 26q31 24 57 92l2 6q10 25 10 49q0 28 -30 79q-2 3 -3 5q-16 26 -54 49q-56 33 -147 33
q-71 0 -188 -7q-21 -2 -53 -1h-4q-4 0 -12 1h-9q-8 0 -20 -3q-12 -2 -12 -11q0 -14 24 -22q9 -3 31 -10l27 -9q21 -8 21 -25q0 -4 -2 -12q-1 -4 -1 -6q0 -10 5 -33q4 -18 4 -28q0 -8 -3 -15q-2 -4 -2 -6t1 -5q3 -4 3 -12q0 -7 -3 -22q-3 -16 -2 -25q0 -3 3 -9q2 -6 2 -8
q0 -4 -3 -16q-3 -16 -3 -28q0 -18 4 -49q3 -25 3 -45q0 -26 -4 -50q-1 -5 -1 -6q0 -3 2 -9q2 -5 2 -7q0 -10 -6 -26q-7 -21 -7 -36q0 -9 4 -29q6 -28 -7 -44q-10 -14 -34 -20l-15 -3q-19 -3 -29 -6t-10 -12q0 -6 6 -11q28 -19 51 -19q3 0 10 2q6 1 9 1q9 1 24 1q10 0 25 -2
q12 -2 21 -2q7 0 25 1q22 2 33 2q12 0 38 -3q14 -1 21 -1q14 0 26 2q28 4 28 27t-29 23q-2 0 -6 -1q-12 -1 -26 3q-12 3 -27 14zM404 413q-45 -57 -110 -57q-29 0 -34 7.5t-4 46.5q0 7 3 31q4 38 4 60q0 33 -4 49q-7 25 1 53q9 28 31 28q11 0 29 -5q23 -7 48 -8
q23 -1 32 -18q9 -16 21 -52q4 -12 7 -19v-4v-3q1 -2 3 -5t4 -7q5 -12 5 -23q0 -27 -36 -74z" />
    <glyph glyph-name="S" unicode="S" horiz-adv-x="539" 
d="M507 177q0 74 -14 99q-8 15 -41 44q-13 12 -22 21q-1 1 -5 4q-13 12 -23 13q-27 2 -54 24q-4 4 -7 6q-9 8 -31 20l-12 6l-12 6q-22 12 -34 13q-13 2 -21 16q-1 1 -3 6q-6 10 -11 14q-32 23 -33 55q0 11 3 21q8 25 21 47q9 16 28 33q29 27 47 26q6 0 16 -5q2 -1 3 -1
q2 -1 5 -2q4 -2 5 -2h3q4 1 10 0q34 -7 59 -24q27 -19 43 -48q1 -2 4 -7q5 -10 8 -14q9 -11 25 -11q26 0 26 21q0 6 -8 17q-4 6 -4 9t3 7q3 6 3 13q0 6 -5 22q-4 12 -3 19q3 25 -25 31q-13 3 -35 10q-24 7 -40 10q-20 4 -38 4q-8 0 -24 -2q-65 -12 -121 -12q-23 0 -38 -18
q-4 -5 -16 -13q-2 -2 -4 -3q-44 -27 -56 -64q-21 -64 -21 -91q0 -8 8 -19q4 -6 6 -10q23 -46 39 -72q21 -33 48 -52q25 -19 58 -28q13 -3 38 -19l9 -6q8 -5 28 -20t33 -21q60 -31 60 -94q0 -27 -9 -46q-18 -41 -92 -65q-22 -8 -43 -8q-15 0 -29 9q-10 6 -30 17
q-39 22 -53 38q-18 22 -19 42q-1 12 -12 23q-13 13 -35 13q-31 0 -22 -36q2 -7 3 -22q1 -9 2 -14q1 -6 5 -23q5 -16 6 -26q5 -32 11 -38q7 -7 36 -11q10 -1 33 -5q99 -16 143 -16q40 0 101 27q23 11 37 16q19 7 47 39q9 10 15 15q27 23 27 92z" />
    <glyph glyph-name="T" unicode="T" horiz-adv-x="687" 
d="M470 10q20 9 20 20q0 6 -10 9q-26 8 -47 16q-33 11 -33 51q0 16 -3 41q-3 20 -3 38q0 8 4 17q2 6 2 10q0 9 -5 26q-3 13 -3 18q7 68 4 117q0 6 -2 17q-2 14 -1 23q11 84 7 168q-3 39 24 39q4 0 17 -2h3q39 -6 57 -1q12 2 44 2h6q22 0 29 -19q3 -7 7 -22q1 -6 2 -9
q1 -4 3 -11q3 -14 6 -21q8 -16 24 -16q43 0 43 27q0 3 -3 10t-3 16q0 12 7 40t7 51t-22 23h-22q-40 1 -60 -1q-13 -1 -53 -6q-82 -9 -112 -9q-65 0 -115 8q-21 3 -44 3q-14 0 -47 -2q-27 -1 -41 -1q-61 0 -86 21q-10 8 -21 8q-26 0 -26 -26q0 -7 2 -21q2 -11 2 -17
q0 -8 -8 -24q-6 -13 -6 -20q0 -16 7 -50q2 -8 3 -13q3 -16 25 -16q12 0 26 22q22 32 45 49q33 26 69 26q17 0 36 -4q15 -4 27 -4q26 0 26 -19q0 -28 -3 -93q-1 -29 -1 -46q-1 -25 1 -82q2 -61 -1 -94q-2 -20 1 -45q2 -17 2 -31q0 -12 -4 -28q-1 -6 -1 -9q0 -11 7 -37
q4 -14 4 -20q0 -18 -34 -40q-18 -12 -45 -19q-22 -5 -22 -21q0 -14 19 -24q13 -7 27 -7q9 0 25 4q23 5 40 5q19 0 42 -5q13 -3 43 -3h7q59 0 85 13z" />
    <glyph glyph-name="U" unicode="U" horiz-adv-x="807" 
d="M589 37q5 6 17 17q33 32 43 51q26 50 26 96q0 5 -2 20q-2 19 -2 28q0 17 -1 49q-1 25 -1 42q0 10 13 21q12 11 8 38q-8 43 -3 69q9 43 0 73q-18 68 28 85q7 3 27 7q32 6 32 26q0 25 -21 25q-7 0 -21 -4q-7 -1 -11 -2t-15 -4q-13 -4 -23 -4q-6 0 -19 3q-23 5 -58 4
q-37 0 -80 -5q-35 -5 -35 -19q0 -12 18 -17q5 -1 19 -6q20 -8 29 -9q35 -5 34 -28q-1 -13 8 -38q3 -11 4 -17q1 -9 -3 -26q-2 -11 -2 -19q0 -3 3 -10q4 -8 4 -18v-53q0 -26 -8 -73q-6 -38 -6 -61q0 -3 3 -11q4 -9 4 -19q0 -11 -4 -31q-1 -11 -2 -16q-12 -89 -99 -139
q-30 -18 -51 -18q-36 0 -85 17q-56 19 -87 81q-17 35 -18 91v13q0 10 -3 22q-3 10 -3 20q0 12 3 29q6 29 5 68q0 9 -2 31q-1 17 -1 29q0 6 -4 21t-2 23q9 36 5 91q-1 27 26 37q7 2 23 7q13 5 20 7q28 11 28 24q0 9 -21 22q-14 8 -33 8q-13 0 -30 -7q-2 -1 -3 -1
q-28 -9 -67 -9q-30 0 -72 7q-7 1 -23 5q-22 5 -34 5q-31 0 -31 -29q0 -34 42 -38q34 -3 42 -12q5 -5 9 -25q1 -6 2 -10q5 -20 5 -36q0 -61 -8 -128q-2 -16 -2 -40q0 -10 3 -36q3 -27 3 -50q0 -9 -4 -29q-2 -7 -2 -9q0 -3 2 -9q3 -8 3 -15q0 -61 24 -110q17 -34 42 -51
q101 -75 184 -75q38 0 62 6q13 3 48 7q30 3 44 6q28 6 57 35z" />
    <glyph glyph-name="V" unicode="V" horiz-adv-x="795" 
d="M763 664q0 15 -23 15q-20 -1 -43 3q-21 4 -42 4q-3 0 -18 -3q-18 -4 -28 -5q-12 0 -37 5q-5 1 -9 2q-11 2 -35 2q-22 0 -22 -22q0 -29 23 -38q3 -1 11 -3q11 -3 17 -6q34 -15 18 -49q-1 -3 -4 -10q-12 -24 -14 -38q-2 -10 -2 -27q-1 -9 -6 -22q-1 -3 -2 -5
q-11 -28 -43 -92q-31 -63 -44 -106q-6 -23 -16 -35q-5 -7 -12 -22q-6 -12 -12 -12t-19 37q-2 4 -3 7q-10 26 -31 86q-28 82 -49 125q-12 25 -25 70q-10 37 -21 61q-14 27 -8 35q3 5 27 13l12 4q33 12 33 25q0 12 -27 15q-9 1 -26 5q-15 3 -30 3q-9 0 -33 -2q-17 -1 -29 -1
q-8 0 -20 2q-10 2 -16 2q-17 0 -58 -4q-19 -2 -29 -3q-36 -3 -36 -25q1 -23 31 -28q50 -7 70 -40q26 -39 31 -71q11 -56 47 -132q3 -7 11 -21q19 -39 27 -61q2 -6 8 -18q14 -23 20 -50q1 -5 2 -21q1 -12 2 -16q10 -27 31 -74q13 -28 19 -44q4 -9 8 -23q5 -16 10 -26
q14 -36 47 -36q30 0 45 38q3 6 8 24q6 17 11 26q16 27 38 88q14 40 23 60l14 31q27 55 41 84q2 3 6 10q8 13 8 20q0 28 4 40q8 23 28 50q5 6 12 24q1 4 2 6q9 25 35 60q12 17 34 43q2 2 7 8q17 21 31 30q20 13 20 28z" />
    <glyph glyph-name="W" unicode="W" horiz-adv-x="1080" 
d="M559 222q5 -13 18 -34q15 -23 20 -39q16 -48 60 -140q10 -22 26 -22t29 17q21 30 36 69q5 12 14 45q11 43 29 63q3 3 6 12q1 2 1 3q7 16 22 51q12 28 19 44l10 23q19 41 28 63q14 33 46 108q26 61 40 94q9 19 22 28q10 7 34 19q15 8 23 13q14 9 14 17q0 13 -13 18
q-32 13 -56 13q-21 0 -47 -2q-21 -1 -39 -1q-9 0 -17 2q-9 2 -24 2q-37 0 -37 -19q0 -25 21 -36q19 -10 31 -21q17 -12 5 -24q-4 -3 -11 -25q-2 -6 -3 -8q-11 -23 -26 -68q-10 -29 -18 -47q-7 -18 -22 -58q-12 -32 -19 -50q-8 -19 -24 -58q-13 -30 -16 -41q-14 -62 -23 -62
q-5 0 -11 11q0 1 -2 3q-5 9 -6 18q0 3 -1 9q0 8 -1 11q-4 10 -14 18q-5 4 -9 13q-32 74 -48 110q-5 12 -5 21q0 11 5 21q1 3 8 17q21 45 39 65q13 16 15 30q6 37 37 72q11 13 38 35q9 8 14 12q2 2 9 6q13 9 13 23q0 22 -27 22q-3 0 -14 -1q-20 -2 -32 -2q-7 0 -24 1
q-13 1 -23 1t-28 1q-15 1 -22 1t-17 -4l-6 -3q-17 -6 -17 -19q0 -10 15 -18q3 -2 16 -7q6 -2 7 -3q16 -8 11 -28q-9 -39 -17 -54q-16 -34 -16 -51q0 -29 -13 -29q-12 0 -22 26q-8 21 -25 68q-7 21 -12 34q-5 11 0 19q4 7 16 7q16 0 26 18q5 10 5 21t-21 13q-9 1 -25 0h-13
q-16 0 -49 -1h-39q-28 0 -43 3q-7 1 -18 4q-15 4 -24 4q-16 0 -27 -18q-4 -6 -8 -6q-2 0 -10 3q-5 2 -7 2q-52 14 -91 14q-40 0 -64 -7q-9 -2 -13 1q-3 2 -8 2q-24 -1 -49 0q-18 0 -32 -16q-8 -10 -8 -16t9 -11q12 -8 37 -18q3 -1 5 -2q53 -23 64 -68q6 -26 28 -59
q29 -44 33 -75q1 -7 8 -22q1 -3 2 -5q11 -27 37 -88q35 -87 56 -133q7 -17 21 -58q19 -58 39 -85q17 -22 38 -22q16 0 31 12q11 9 18 34q3 8 5 13q34 70 76 153q8 16 15 16q3 0 6 -7v-1zM306 644q6 0 11 -4q2 -3 4 -4q10 -8 42 -9q18 0 27 -15q31 -43 31 -78q1 -13 12 -33
q2 -3 3 -5q38 -68 53 -103q23 -52 23 -79q-1 -6 -14 -31q-1 -1 -1 -2q-21 -39 -36 -73q-6 -13 -11 -24q-4 -9 -9 -9q-4 0 -16 24q-10 19 -24 51q-6 12 -10 21q-4 11 -13 32q-23 59 -41 86q-6 9 -4 20q3 25 -21 65q-16 31 -20 53q-7 33 -34 70q-12 19 6 29q2 1 7 4
q24 14 35 14z" />
    <glyph glyph-name="X" unicode="X" horiz-adv-x="835" 
d="M327 4q15 5 15 14q0 13 -10 25q-3 3 -17 3q-21 0 -37 9q-8 4 -8 12q0 4 7 11q8 9 8 16q0 2 2 6q2 3 2 6q0 19 14 36q13 18 34 33q26 17 44 54q5 11 11 22q7 11 11 11t13 -9q54 -54 123 -171q12 -21 12 -27q0 -10 -22 -14q-4 -1 -11 -1q-9 -1 -14 -4l-4 -2q-9 -6 -9 -14
q0 -12 14 -19q15 -7 32 -7q13 0 25 3q6 1 19 5q11 4 17 5q2 0 6 1q13 3 21 3q4 0 19 -4q6 -2 8 -2q19 -4 45 -4h19q48 0 74 4q15 2 15 19q0 10 -14 13q-15 3 -47 15q-7 2 -12 4q-19 7 -26 13q-6 6 -9 17q-4 20 -33 39q-16 12 -19 18q-9 21 -45 57q-7 8 -12 13q-18 20 -19 31
q-1 19 -20 44q-27 36 -43 56q-12 14 -12 22t8 18t23 32q10 15 15 22q5 6 22 25q22 23 30 39q31 61 89 95q44 25 73 31q17 3 32 9q14 5 14 15q0 9 -10 16q-12 8 -34 12q-37 6 -63 6q-4 0 -15 -2q-5 -1 -7 -1q-8 0 -26 2q-14 2 -22 2q-21 0 -36 -3q-17 -3 -41 -3h-8
q-19 0 -19 -18q0 -15 11 -19q3 -1 12 -3q7 -1 10 -2q27 -8 28 -23q0 -14 -24 -38q-30 -26 -42 -61q-10 -30 -58 -80q-5 -5 -10 -5q-6 0 -10 7q-6 14 -29 35q-26 23 -31 44q-5 17 -25 50q-13 22 -18 34q-8 15 -8 21q0 5 21 24q12 10 12 24q0 9 -33 9q-44 0 -124 5
q-42 2 -66 3q-4 0 -19 1h-18q-15 0 -25 -10l-3 -3q-10 -9 -10 -17q0 -10 12 -13q9 -3 27 -7q11 -2 17 -4q57 -17 78 -57q14 -26 51 -65q26 -29 38 -59q25 -59 53 -83q32 -28 32 -47q0 -17 -34 -49q-44 -44 -66 -83q-27 -47 -97 -113q-11 -11 -25 -14q-6 -1 -24 -9
q-27 -11 -38 -11q-7 0 -17 1h-4q-9 0 -17 -8q-11 -9 -11 -25q0 -19 27 -19q23 0 41 3q10 2 32 6q21 4 37 6q20 3 40 3q27 0 46 -10q14 -6 27 -6q14 0 42 8z" />
    <glyph glyph-name="Y" unicode="Y" horiz-adv-x="750" 
d="M538 16q0 17 -39 28q-5 1 -8 2q-51 17 -51 71v29q1 26 1 39t-6 31q-3 10 -3 15q0 16 5 55q4 33 4 54q0 23 14 37q8 9 22 28q7 9 11 14q3 4 10 14q12 18 21 24q37 24 55 76q14 36 44 59q14 10 48 31l24 16q5 3 17 8q4 1 6 2q9 5 9 17q0 15 -19 15q-10 0 -20 -1
q-6 -2 -16 -1q-18 1 -54 0h-19q-29 0 -64 7q-12 2 -17 2q-41 0 -41 -29q0 -22 23 -26q32 -5 40 -14q7 -7 -13 -43q-1 -1 -3 -4q-1 -2 -2 -3q-44 -75 -108 -152q-9 -10 -15 -10q-5 0 -12 10q-3 5 -6 16q-2 7 -4 11q-2 5 -6 17q-13 38 -36 54q-15 10 -29 35q-2 3 -3 5
q-6 9 -16 29q-2 3 -7 11q-9 15 -9 21q0 12 13 12q4 0 13 -1q5 -1 8 -1q23 0 23 29q0 18 -20 24q-30 10 -55 10q-18 0 -31 -4q-19 -5 -45 -5q-5 0 -18 1q-15 2 -23 2q-17 0 -56 -4q-9 -1 -14 -1q-14 -2 -21 -7q-10 -7 -10 -17q0 -11 12 -16q5 -2 21 -2q31 0 53 -31
q14 -19 46 -61q20 -27 31 -42q16 -22 25 -32q4 -5 13 -16q58 -70 70 -117q24 -92 16 -142q-3 -19 -2 -64q1 -14 1 -23q2 -29 -23 -41q-8 -4 -28 -12q-17 -6 -25 -10q-23 -11 -23 -25t14 -20q13 -5 23 -5q58 0 87 3q10 1 30 4q41 5 61 5q10 0 37 -7q22 -6 33 -6q36 0 36 22z
" />
    <glyph glyph-name="Z" unicode="Z" horiz-adv-x="709" 
d="M606 159q-3 -4 -6 -14q-2 -6 -4 -9q-24 -41 -55 -58q-27 -15 -64 -15h-51q-68 -1 -102 0q-6 0 -14 -3q-10 -4 -25 -4q-10 0 -28 4q-14 4 -24 4q-19 0 -19 10q0 28 36 64q75 73 94 125q3 8 11 19q6 7 9 12q12 21 32 25q17 4 17 12q0 3 -2 9q-4 9 -1 25q4 24 25 30
q16 4 16 15q0 3 -2 8q-1 3 -1 5q0 9 22 18q11 5 25 25q7 9 18 31q6 10 9 16q4 6 16 28q29 49 54 70q9 8 24 34q0 2 1 3q5 9 5 17q0 14 -21 14q-28 0 -86 5q-13 1 -21 2q-38 4 -58 4q-33 0 -66 -9q-13 -4 -30 -4q-6 0 -25 2q-37 4 -60 4q-45 1 -105 11q-20 3 -31 3h-8
q-25 0 -34 -21q-16 -33 -15 -61q0 -7 -7 -23q-3 -7 -4 -12q-1 -3 -3 -11q-4 -18 -4 -33q0 -18 25 -18q34 0 50 23q21 29 36 55q15 23 45 23q8 0 35 4q22 4 30 4q7 0 22 -4q19 -5 35 -5q46 0 67 6q13 4 25 4q31 0 31 -13q0 -10 -10 -20q-4 -4 -13 -11q-13 -10 -17 -17
q-21 -39 -26 -64q-3 -15 -26 -32q-14 -10 -18 -20q-5 -12 -20 -34q-3 -3 -4 -5q-3 -5 -11 -15q-14 -21 -23 -31q-3 -4 -14 -14q-23 -24 -28 -46q-2 -10 -19 -21q-32 -20 -56 -83q-4 -11 -20 -22q-9 -6 -10 -12q-5 -24 -33 -56q-7 -9 -12 -15q-2 -3 -13 -15q-32 -35 -32 -53
q0 -8 13.5 -16.5t26.5 -8.5q77 0 116 1q16 0 53 2q51 3 79 2t93 -8q72 -7 116 -7q24 0 45 -3q6 -1 13 -6q5 -4 11 -4q14 0 23 6q7 6 11 29q1 7 4 22q2 11 3 15q2 10 8 27q4 10 7 19q3 10 12 26q7 15 7 24q0 26 -4 32t-21 6q-14 0 -27 -5q-11 -5 -23 -23z" />
    <glyph glyph-name="bracketleft" unicode="[" horiz-adv-x="379" 
d="M187 604q0 4 -1 20v17q2 31 9 42q7 12 23 13h23q23 0 39 2q5 0 16 1h12q8 2 8 32q0 21 -17 21q-20 0 -57 -4q-20 -2 -33 -3q-7 -1 -23 -2q-33 -2 -51 -5q-35 -5 -31 -40q1 -6 2 -18q3 -24 4 -36q1 -11 0 -35v-18q-4 -97 -5 -149q0 -6 -1 -22q-2 -40 -1 -61q1 -16 4 -53
q3 -40 4 -62q2 -72 -1 -174q0 -17 -1 -69q-1 -43 -1 -61q-2 -46 5 -55q0 -1 2 -3q8 -11 21 -12l11 -1q27 -1 43 -1q21 0 59 3q32 2 52 2q16 0 24 10q5 6 5 36q0 7 -13 6h-3q-4 0 -16 -1q-9 -2 -14 -2q-10 0 -26 1q-14 1 -24 1q-13 0 -33 25q-13 15 -14 21t7 26q6 16 2 51
q-1 7 0 42q1 9 1 12q-1 31 -5 87q-4 60 -3 98q1 58 -1 188q-2 78 -1 130z" />
    <glyph glyph-name="backslash" unicode="\" 
d="M470 2q-2 13 -13 31q-5 9 -25 43q-44 71 -57 119q-1 3 -5 8q-3 4 -4 6q-9 16 -21 48q-14 35 -25 54q-6 11 -24 39q-18 29 -26 44q-18 34 -56 111q-42 88 -64 127q-1 3 -4 9q-13 24 -23 21q-15 -4 -27 -5q-19 0 -19 -30q0 -16 12 -33q2 -3 3 -5q6 -8 23 -45q11 -22 15 -29
q7 -13 19 -40q17 -38 29 -58q5 -7 16 -22q16 -23 24 -45l4 -16q5 -16 7 -19q15 -25 41 -82q22 -46 37 -71q9 -16 12 -32q0 -2 1 -7q1 -7 1 -11q0 -3 10 -11q20 -17 26 -48q2 -12 16 -37q2 -3 3 -5q19 -30 56 -30q5 0 12 -1h16q13 1 10 22z" />
    <glyph glyph-name="bracketright" unicode="]" horiz-adv-x="378" 
d="M190 6q0 -4 -1 -14q-3 -17 -2 -22q3 -15 -6 -26q0 -1 -1 -2q-7 -11 -26 -9q-7 1 -18 3q-13 3 -24 1q-4 -1 -15 -1q-15 1 -20 -2q-14 -9 -14 -34q0 -27 17 -27q10 0 33 1q29 1 51 -1q37 -4 80 3q35 5 31 46q-1 10 -1 40v26l-1 15q-4 66 -4 81q1 26 0 53v41q0 6 1 22
q2 40 1 61q-1 25 -2 84q-1 19 -1 31q-1 29 1 93q1 52 0 81q-1 33 2 115v15q1 26 -13 45q-12 17 -29 18q-8 0 -21 1q-18 2 -29 2q-21 0 -53 3q-26 3 -46 3q-14 0 -21 -7q-9 -8 -9 -37q0 -20 16 -20h11q16 1 23 -1q26 -10 45 -10q27 0 32 -13q2 -3 5 -9q9 -17 5 -38
q-4 -26 -3 -57v-29q-1 -20 -1 -25q3 -57 3 -135q1 -21 1 -37v-26l1 -23q0 -15 2 -49q4 -87 -6 -134q-4 -18 2 -57q4 -26 4 -39z" />
    <glyph glyph-name="asciicircum" unicode="^" 
d="M283 783q4 0 10 -14q1 -2 1 -3q3 -6 6 -17q2 -7 3 -11q20 -54 38 -80q7 -14 22 -42q9 -18 14 -27q14 -23 45 -23q18 0 27 4q10 5 10 23q0 6 -7 24q-14 34 -51 96q-38 66 -52 107q-3 8 -13 25q-3 5 -4 7q-7 13 -13 16q-27 15 -45 15q-40 0 -52 -40q0 -2 -2 -9
q-2 -13 -4 -16q-18 -35 -57 -99q-6 -12 -20 -42q-18 -42 -37 -61q-12 -10 -12 -24q2 -27 34 -27q5 0 14 1q8 1 11 1q33 1 42 35q7 24 21 55q9 18 30 58q18 33 27 51q1 0 2 2q8 15 12 15z" />
    <glyph glyph-name="underscore" unicode="_" 
d="M533 -77q0 16 -18 16h-18q-32 1 -60 -1q-79 -5 -186 -1q-98 3 -189 -1q-44 -1 -44 -17q0 -11 -1 -29q-1 -11 -1 -17q0 -13 23 -13q18 -2 48 1q10 0 16 1q15 1 55 0q41 -1 69 0q4 0 41 -3q63 -4 73 -3q32 5 64 5h46q7 1 11 1l34 1q23 0 28 9q9 16 9 51z" />
    <glyph glyph-name="grave" unicode="`" 
d="M201 681q-5 0 -12 -5q-3 -3 -6 -5q-1 0 -4 -2q-6 -4 -10 -7l-5 -5q-2 -3 -3 -4q-3 -3 -9 -11q-3 -4 -4 -5q-2 -3 -7 -7q-4 -4 -6 -7q-8 -13 2 -19q4 -2 15 -10q20 -13 35 -20q5 -2 9 -3q2 0 3 -1q2 -1 4 -3l2 -2q3 -2 17 -8q11 -6 14 -8q19 -10 34 -20q5 -4 9 -6
q11 -8 17 -8q4 0 13 7q6 5 11 8q2 1 8 7q3 2 4 3l2 1q2 1 2 3q1 0 1 1q1 1 1 2q0 3 -9 11q-4 4 -13 15q-3 4 -11 14q-10 13 -21 25q-22 30 -52 54q-17 15 -22 15h-9z" />
    <glyph glyph-name="a" unicode="a" horiz-adv-x="466" 
d="M445 52q0 8 -14 8q-3 0 -9 -1q-8 -2 -14 -2h-3q-13 0 -19 6q-1 1 -3 2q-6 5 -6 9q0 11 -3 27q-4 24 -4 37q-1 42 -1 110q0 9 4 13q1 1 1 3q0 25 -3 38q-1 5 -3 16q-3 20 -6 31q-1 2 -1 7q0 3 -1 6q-1 2 -2 7q-5 15 -10 21q-31 45 -88 45q-16 0 -31 -4q-39 -10 -68 -23
q-3 -2 -8 -5q-7 -5 -15 -8q-27 -11 -58 -42q-8 -8 -14 -22q-4 -10 -10 -17q-9 -12 -9 -22v-1q0 -3 6 -11q10 -12 14 -12q20 0 59 13q2 1 8 2q8 1 10 4q11 19 11 45q1 29 6 34q7 7 21 7q43 0 57 -14q11 -10 20 -39q2 -5 2 -16q0 -4 3 -11q1 -3 1 -5q0 -18 -3 -42
q-2 -13 -15 -17q-23 -8 -40 -15q-8 -4 -16 -6l-30 -10l-27 -9q-28 -9 -62 -33q-35 -27 -35 -71q1 -20 18 -46q23 -36 80 -36q14 0 29 3q10 3 17 3q18 2 40 9q12 4 22 7q3 1 8 3t8 2q11 0 18 -9q1 -2 2 -3q19 -22 49 -22q40 0 59 6q29 11 47 26q11 9 11 24zM258 107
q0 -26 -6 -31q-22 -17 -53 -17q-15 0 -32 8q-3 1 -4 2q-6 3 -9 13q-8 19 -8 26v3q-1 17 17 28l21 12q21 12 32 18q24 10 33 10q6 0 7 -25q2 -34 2 -47z" />
    <glyph glyph-name="b" unicode="b" horiz-adv-x="536" 
d="M471 343q-57 93 -139 93q-14 0 -38 -7q-21 -5 -33 -5t-31 -8q-13 -5 -26 -5q-10 0 -14 4q-3 3 -5 33v7q-2 19 -3 37q0 14 -1 26q-4 48 -4 75q0 19 2 29q2 16 10 41q6 21 6 34q0 35 -32 35q-3 0 -10 -4q-8 -6 -17 -5q-5 0 -13 -6q-4 -2 -7 -4q-8 -4 -37 -17
q-26 -11 -40 -18q-9 -5 -9 -10q0 -3 8 -11q1 -1 9 -7q15 -14 17 -23q1 -5 2 -15q11 -65 7 -96q-10 -85 3 -210q0 -4 2 -13q3 -17 0 -24q-12 -28 -9 -90q2 -21 1 -33q0 -8 -3 -19q-1 -8 -1 -14q0 -9 4 -29q3 -16 3 -24q1 -9 -2 -30q-1 -12 -1 -19q0 -8 5 -13q4 -4 9 -4
q3 0 9 2t8 2q4 0 29 -4q21 -3 26 -3q4 0 9 -1q4 -1 14 0q16 1 25 -1q8 -2 23 -2q89 0 137 20q60 25 106 94q36 56 36 124q0 61 -35 118zM322 48q-21 -20 -54 -20q-46 0 -64 47q-9 22 -15 59q-3 21 -6 33q-1 5 4 12q4 5 2 12q-1 7 -6 27q-8 32 -7 54q2 26 13 49q4 8 5 22
q1 10 4 14q9 11 41 11h4q29 0 61 -18q45 -25 63 -79q2 -6 6 -17q17 -46 17 -71q0 -70 -44 -120q-4 -5 -14 -9q-6 -2 -10 -6z" />
    <glyph glyph-name="c" unicode="c" horiz-adv-x="436" 
d="M372 94q-20 0 -47 -15q-11 -6 -18 -8q-20 -5 -38 -5q-31 0 -52 18q-81 72 -81 149q0 47 29 101q26 50 64 50q30 0 60 -27q32 -30 52 -32q22 -3 39 5q11 5 17 12l3 3q3 3 7 12q7 15 7 29t-48 30q-48 13 -86 12q-50 0 -108 -23q-95 -38 -121 -112q-12 -34 -17 -61
q-6 -34 -6 -52q0 -77 40 -116q68 -68 135 -68q5 0 14 2q12 2 20 2h16q21 -1 32 0q43 2 77 32q30 26 34 35q2 4 2 17q0 10 -26 10z" />
    <glyph glyph-name="d" unicode="d" horiz-adv-x="555" 
d="M471 502q0 1 -2 3q-7 8 -7 13t8 15q2 2 3 4q7 10 5 34q0 2 -1 8v7q-1 16 1 32v8v34v42q0 30 -30 30q-24 0 -42 -5q-24 -6 -75 -30q-19 -9 -19 -17q0 -7 2 -9t8 -4t9 -4q1 -1 5 -2q10 -4 12 -9q2 -3 1 -14q0 -6 1 -9q3 -10 6 -30q3 -24 7 -35q7 -22 7 -48t-7 -61
q-1 -3 -2 -9q-2 -17 -7 -20q-5 -4 -26 -2q-4 0 -15 1q-19 2 -37 2q-29 0 -55 -8q-92 -28 -120 -74l-15 -23q-40 -61 -54 -97q-4 -9 -4 -21t5 -38q2 -9 3 -14q6 -39 16 -54q70 -101 173 -101q47 0 104 15q2 1 9 3q10 3 14 3q9 0 9 -22q0 -6 3 -9q4 -4 15 -4q60 0 142 33
q14 5 14 10q0 3 -1 8v5q0 6 -10 8q-1 0 -4 1q-10 3 -18 2q-14 -3 -22 2q-7 4 -9 13q-4 18 -8 48q-1 18 -1 57v14q-1 46 5 152q2 48 3 76q0 12 5 35q4 19 4 29q0 15 -8 26zM360 267q-3 -12 -1 -40q1 -7 1 -10q-1 -46 0 -93q0 -47 -29 -57q-35 -13 -56 -13q-24 0 -46 16
q-48 37 -78 126q-5 13 -5 30q0 16 10 26q7 7 7 16q0 6 -5 11t-5 10q0 4 7 11q1 2 2 3q6 7 15 19q15 21 29 33q41 34 64 34q50 0 63 -9q11 -6 11 -30q1 -12 3 -18q2 -7 9 -21q10 -20 4 -44z" />
    <glyph glyph-name="e" unicode="e" horiz-adv-x="432" 
d="M295 257q3 0 7 -2q8 -3 25 -3q5 0 14 1q8 1 13 1q25 0 33 4q9 5 9 31q0 5 3 12q3 5 3 11q0 42 -33 57q-17 6 -31 25q-7 10 -28 16q-5 1 -8 2q-22 10 -57 10q-37 0 -76 -18q-31 -14 -85 -57q-36 -29 -42 -73q-2 -8 -6 -26q-8 -34 -8 -52q0 -100 38 -140q71 -73 126 -73
q5 0 18 3q10 3 15 3q6 0 18 -1q10 -1 16 -1q68 0 123 59l13 13q9 7 9 12q0 3 1 7q1 5 1 10q0 9 -15 8h-1q-16 0 -59 -19q-20 -9 -30 -12q-18 -5 -34 -5q-25 0 -42 8q-35 15 -52 52q-11 25 -26 81q-3 8 -4 13q-5 20 5 28q8 5 42 7h10t26 3q56 5 69 5zM158 327l6 6
q22 20 38 31q13 10 32 10q29 0 43 -20q8 -11 8 -28v-11q0 -15 -2 -18q-6 -9 -32 -9h-38q-4 0 -15 -1h-14q-14 0 -22 3q-16 7 -16 14q0 13 12 23z" />
    <glyph glyph-name="f" unicode="f" horiz-adv-x="337" 
d="M333 727q-68 0 -113 -32q-53 -39 -78 -83q-46 -81 -50 -137q-1 -6 -1 -21q-2 -40 -9 -52q-3 -5 -9 -7q-3 0 -11 -1q-9 -1 -15 -3q-1 0 -6 -2q-16 -4 -15 -22q0 -6 21 -10q5 0 7 -1q3 -1 11 -2q28 -4 28 -26q0 -9 2 -29q1 -17 1 -26q0 -5 -3 -9q-4 -5 -4 -15q0 -9 2 -31
q1 -18 1 -27v-19q0 -35 -1 -54q0 -3 -1 -11q-3 -47 -11 -69q-2 -7 -34 -10q-4 -1 -6 -1h-3q-12 -2 -12 -14v-6q-1 -6 -1 -8q0 -4 11 -4q29 -1 93 0h53q44 0 88 8q14 2 14 10q0 2 -1 7q-1 6 -1 10q0 10 -11 10q-3 0 -11 1h-11h-7q-14 0 -18 1q-8 3 -10 6t-4 5q-13 14 -14 36
q0 12 3 27t3 32q-4 110 -8 166q0 18 5 27q8 12 30 12q17 0 53 4q9 1 13 1q31 3 31 16q0 10 -6 15q-3 2 -4 4t-2 8q-2 8 -7 11q-7 4 -21 4h-3h-12q-17 -1 -25 0q-30 3 -35 8q-7 7 -4 37q1 7 1 22q1 8 1 13q0 6 3 13q3 4 3 8q0 6 1 19q0 18 1 28q1 6 5 22q3 12 4 19
q6 43 43 43q11 0 21 -3q8 -3 26 -15q24 -16 34 -16q20 0 29 15l6 9q14 25 14 36q0 53 -64 53z" />
    <glyph glyph-name="g" unicode="g" horiz-adv-x="528" 
d="M495 356q17 -2 17 25q0 29 -17 29q-5 0 -26 -1q-23 -2 -31 -1q-10 1 -16 -1q-3 -1 -9 -1l-24 3q-11 2 -30 9q-16 6 -24 7q-17 3 -54 3q-5 0 -11 5q-3 3 -6 3q-9 0 -29 -4q-17 -4 -26 -4q-38 0 -69 -20q-26 -18 -51 -51q-14 -19 -21 -44q-3 -14 -5 -39q0 -9 -1 -13
q-2 -11 -7 -25q-1 -5 -1 -6q0 -8 11 -15q9 -6 18 -18q6 -7 13 -13l44 -36q1 -1 3 -2q2 -3 2 -4q0 -5 -12 -10t-32 -14q-37 -16 -23 -53q16 -44 42 -63q18 -14 17 -21t-23 -15q-1 0 -5 -2q-21 -8 -29 -16q-4 -4 -15 -11q-30 -21 -30 -54q0 -45 40 -86q46 -43 114 -43
q125 0 192 32q5 2 16 12q14 14 22 9q9 -6 13 7q2 7 6 10q32 23 52 60q12 22 12 54q0 42 -24 72q-1 2 -1 4q0 5 -5 9q-23 22 -66 31q-18 3 -37 3q-21 0 -69 -1q-38 -1 -59 -1q-52 -2 -52 34q0 20 9 32q1 1 3 5q2 5 7 6q18 4 30 5q56 4 82 10q43 11 75 45q44 47 44 97
q0 9 -4 28q-6 26 0 35q7 10 60 4zM281 -17q61 0 104 -41q17 -17 17 -33q0 -12 -7 -26q-16 -29 -34 -44q-26 -24 -49 -29q-40 -8 -71 -8q-7 0 -19 7q-7 3 -13 6q-5 2 -15 4q-7 1 -9 3q-23 15 -34 38q-6 12 -6 26q0 13 4 21q17 31 36 45q37 31 96 31zM295 184q-19 -14 -38 -14
q-27 0 -45 32q-12 21 -18 43q-8 32 -8 88q0 35 24 53q9 8 21 12q8 3 18 3q14 0 23 -9l10 -10q14 -13 20 -20q19 -21 19 -44q0 -7 4 -24q1 -4 1 -6t2 -6q2 -7 3 -13q1 -4 -4 -11q-3 -4 -4 -8q-1 -5 -4 -19q-6 -34 -24 -47z" />
    <glyph glyph-name="h" unicode="h" horiz-adv-x="565" 
d="M131 0q10 0 29 -2q10 -1 17 -1q4 0 8 1q2 1 4 1q13 0 29 -1h5q25 0 25 24q0 21 -19 21q-34 1 -34 39v51v20q-1 27 0 41q0 2 2 8t2 10v25q1 32 5 51q6 29 27 46q24 18 67 18q19 0 37.5 -19t24.5 -44q3 -15 3 -29q0 -24 1 -72q0 -71 1 -107q0 -30 -10 -39q-12 -12 -30 -12
q-25 -1 -25 -27q0 -10 31 -10t75 2q36 2 65 2q13 0 38 1h12q10 0 14 3q5 4 5 16q0 11 -3 15q-2 3 -10 3q-3 1 -4 1l-18 2q-2 0 -7 1q-7 1 -12 6q-6 6 -6 22q0 20 -6 54q-6 29 -6 49q0 13 3 25q5 25 5 64q0 45 -20 90q-15 31 -29 40q-46 29 -97 29q-19 0 -59 -8
q-19 -4 -35 -12q-5 -2 -8 -3q-4 -2 -10 -6q-8 -5 -12 -5q-6 0 -6 15q-4 79 -1 136q1 16 8 47q5 23 5 33q0 2 -2 7q-6 15 -6 41q0 3 1 12q2 12 2 17q0 17 -21 17q-5 0 -15 -3q-4 -1 -6 -2q-19 -4 -39 -10q-4 -1 -8 -3q-6 -2 -13 -4q-3 -1 -13 -2q-17 -3 -26 -5
q-24 -9 -24 -17t7 -14q1 -1 5 -3q7 -4 9 -8q15 -22 21 -38q12 -31 2 -71q-1 -6 1 -20q1 -7 1 -10q0 -43 -3 -141q-2 -103 -2 -160q0 -47 6 -94q5 -28 -9 -52q-4 -7 -17 -17q-2 -1 -3 -2q-5 -4 -22 -9h-2q-11 -3 -11 -18q0 -7 3 -8q8 -2 18 -2q26 0 44 2q14 2 41 2z" />
    <glyph glyph-name="i" unicode="i" horiz-adv-x="284" 
d="M217 36q-14 0 -21 9q-7 8 -9 29q-1 17 5 51q3 17 4 26q1 5 3 17q3 16 3 24q0 7 -2 12q-7 18 -7 49q0 10 2 30q3 36 -1 45q-2 5 -1 10q2 9 2 19q0 5 -1 18v5q0 6 -2 13q-1 8 0 11q4 11 -4 18q-4 4 -17 4q-29 0 -59 -12t-57 -30q-12 -9 -12 -15q0 -8 7 -18q4 -5 16 -5
q14 0 18 -4q5 -5 2 -30q-1 -16 0 -21q7 -30 5 -98v-25q0 -32 -2 -49q-2 -44 -13 -65q-1 -3 -2 -9q-2 -8 -8 -11q-1 -1 -5 -2q-11 -6 -21 -8q-14 -2 -14 -14q0 -20 5 -20q4 0 13 1q7 1 12 1q48 0 146 5q23 1 36 2q18 0 18 10q0 2 2 9q2 10 2 13t-4 5q-4 1 -11 1h-6
q-4 0 -12 -1h-10zM199 572q15 18 15 27q0 13 -24 24q-38 18 -60 18q-7 0 -14 -3q-3 -1 -5 -1q-38 -8 -38 -37q0 -17 13 -37q8 -15 21 -19q24 -7 48 -7q15 0 38 28q4 4 6 7z" />
    <glyph glyph-name="j" unicode="j" horiz-adv-x="278" 
d="M201 348q0 8 -4 24q-2 9 -2 14q0 4 1 12q1 6 1 11q0 6 -6 10q-9 7 -24 7q-7 0 -21 -5q-4 -1 -6 -2q-17 -6 -55 -13q-18 -3 -28 -6q-24 -5 -24 -17q1 -10 12 -19l4 -4q44 -42 44 -84q0 -22 -10 -43q-4 -8 -4 -20q0 -8 2 -24q1 -8 1 -13q0 -6 3 -18q4 -16 2 -23
q-11 -26 -11 -57q-1 -24 9 -77q1 -3 1 -5q4 -21 -6 -70q-5 -21 -5 -30q-2 -46 -22 -71q-1 -1 -4 -5q-7 -10 -15 -12q-12 -3 -28 -19q-9 -8 -9 -29q0 -10 26 -10q13 0 31 10q43 26 68 52q7 7 20 24q15 18 24 27q24 24 28 44q10 67 10 121q-1 52 -5 177q-1 55 -2 88q0 3 2 23
q2 25 2 32zM199 572q15 18 15 27q0 13 -24 24q-38 18 -60 18q-7 0 -14 -3q-3 -1 -5 -1q-38 -8 -38 -37q0 -17 13 -37q8 -15 21 -19q24 -7 48 -7q15 0 38 28q4 4 6 7z" />
    <glyph glyph-name="k" unicode="k" horiz-adv-x="532" 
d="M481 35q-17 3 -37 18q-13 11 -32 32q-13 14 -38 44q-16 20 -25 30q-22 25 -49 46q-24 18 -24 31q0 14 22 32q14 11 44 38q25 23 39 34q51 38 97 44q17 2 17 11q0 19 -16 19q-4 0 -15 1h-14q-28 0 -40 1q-27 3 -44 3q-14 0 -29 -4q-34 -9 -54 -12h-4q-15 -1 -16 -12
q-1 -9 10 -13q2 -1 3 -1q21 -10 21 -22t-14 -23q-6 -6 -21 -18q-25 -22 -41 -35q-1 -1 -6 -5q-8 -9 -13 -9q-8 0 -8 18q0 27 -1 86q-1 48 -1 75q-1 14 2 48q2 21 2 32q0 45 -21 70q-3 3 -3 9q0 5 3 7q9 5 15 15q8 11 8 28q0 9 -3 29q-2 13 -2 20v4q-2 16 -7 20q-6 5 -17 5
q-17 0 -35 -5q-14 -4 -40 -16l-8 -4q-31 -15 -48 -20q-5 -1 -5 -7q0 -2 3 -10v-1q4 -10 11 -13q6 -2 13 -7q4 -3 9 -11q2 -5 4 -7q13 -20 11 -58q-6 -98 -6 -148q-1 -21 3 -64q3 -37 3 -56q0 -28 -3 -84q-4 -85 -3 -127q2 -37 -10 -50q-8 -10 -20 -14q-2 -1 -8 -3
q-8 -2 -11 -5t-3 -13q0 -14 28 -14q29 0 94 2q53 2 82 2q22 0 26 4t4 27q0 16 -22 16q-13 0 -22 4q-1 0 -2 1q-9 4 -12 14q-2 6 -7 23q-9 30 -9 45v7q0 12 1 15q5 10 12 10q5 0 12 -6q41 -37 69 -80q1 -1 3 -5q9 -14 11 -21q4 -12 -9 -12q-3 0 -3 -11v-1q0 -6 2 -20
q2 -8 9 -8q6 0 19 1q12 1 16 1q26 0 84 -5q46 -4 72 -4q33 0 33 14q0 20 -17 24l-3 1q-9 2 -16 3z" />
    <glyph glyph-name="l" unicode="l" horiz-adv-x="283" 
d="M226 38q-16 0 -23 10l-2 2q-4 5 -4 29v7q0 10 -2 21q-1 6 -1 9q0 13 1 45q2 41 2 66v114v26q0 48 1 73q1 18 4 58q4 41 4 59q0 3 -2 8q-1 4 -1 7q0 18 -1 55v49v19q0 16 -31 15h-4q-33 0 -90 -25q-19 -9 -31 -13q-15 -4 -15 -19q0 -11 5 -16q4 -4 17 -4q16 0 23 -1
q11 -2 14 -6q8 -10 8 -43q0 -24 1 -67q2 -57 0 -97q0 -8 -1 -28q-1 -16 -1 -24q0 -13 -4 -25q-2 -7 2 -24q5 -21 1 -73q-2 -22 -1 -36q1 -20 -4 -61q-3 -36 -3 -54q0 -24 -3 -35q-8 -27 -34 -31q-13 -1 -18 -6q-3 -3 -3 -15v-2q0 -8 4 -10t8 -2t22 1q15 1 18 1q31 0 88 3
q46 3 77 3q13 0 13 11t-2 23q-1 6 -9 6q-3 0 -10 -1q-8 -2 -13 -2z" />
    <glyph glyph-name="m" unicode="m" horiz-adv-x="812" 
d="M760 38q-28 0 -35 20q-4 13 2 24q1 1 3 4t2 6q0 2 -1 6q-1 3 -1 5q-1 29 -2 72q-1 17 -1 28q0 8 -2 19q-1 6 -1 8q1 21 0 52v27q0 58 -48 89q-39 25 -92 25t-95 -34q-19 -15 -31 -15t-24 17q-11 15 -36 19q-9 1 -29 7q-28 7 -46 7q-25 0 -77 -18q-7 -2 -12 -4
q-4 -1 -13 -6q-12 -6 -18 -6h-2q-7 0 -10 7q-1 2 -2 8t-3 9q-2 4 -15 4q-15 0 -47 -8q-27 -7 -40 -7q-42 -1 -42 -31q0 -12 35 -32q14 -8 14 -44q-1 -36 -8 -111q-2 -26 -3 -40q0 -4 -1 -17q0 -16 1 -24q7 -43 -5 -56q-10 -12 -27 -16q-2 -1 -11 -2q-11 -2 -11 -19
q0 -13 22 -13q53 1 160 -1q15 0 24 4q2 1 6 2q12 2 12 13q0 18 -17 19q-24 1 -30.5 10t-5.5 41q2 75 -3 185q-4 57 21 75q27 19 56 19q16 1 39 -6q43 -14 39 -76q0 -8 -3 -26q-2 -14 -3 -23q-2 -18 1 -31q5 -18 6 -52q0 -17 1 -26l1 -11q4 -28 -3 -43q-13 -29 -42 -29
q-15 0 -15 -24q0 -21 26 -21q31 0 98 1q55 1 86 1q24 0 24 20q0 22 -12 22q-5 0 -14 -2q-8 -1 -12 -1q-28 1 -38 47q-3 14 0 29q1 13 6 28q12 37 12 86q0 9 -1 33q-1 23 0 37v8q-1 21 5 28q25 29 65 29q12 0 22 -3q28 -7 39 -41q16 -55 19 -104q3 -44 -4 -85q-4 -15 -2 -37
q4 -38 -1 -45l-2 -3q-6 -8 -18 -9q-27 -1 -27 -21q0 -15 14 -15q42 -3 125 -1q42 1 63 1q23 0 23 21q0 17 -25 17h-3z" />
    <glyph glyph-name="n" unicode="n" horiz-adv-x="566" 
d="M500 44q-24 0 -25 34q-1 27 -1 86v22q0 15 1 44q1 59 -1 88q-1 5 -7 16q-7 9 -8 15q-16 78 -137 78q-22 0 -43 -8q-33 -14 -53 -18q-28 -6 -36 -2q-5 2 -5 10q-1 11 -12 11q-5 0 -14 -3q-24 -7 -68 -18q-22 -5 -35 -9q-8 -2 -10 -7q-3 -7 -3 -16q0 -7 8 -12q0 -1 1 -1
q3 -2 11 -7q7 -4 10 -6q16 -11 18 -29q2 -17 2 -52v-26q0 -2 2 -8q1 -5 1 -7q0 -3 -5 -6q-7 -4 -7 -9q0 -3 2 -8q3 -10 3 -26q0 -18 3 -46q2 -23 2 -40q0 -27 -19 -41q-13 -11 -36 -11q-7 0 -11 -2q-3 -2 -3 -13v-2q0 -15 23 -15q117 0 175 1q26 0 27 13q2 12 0 18
q-3 9 -20 9q-35 2 -35 33q0 5 3 75q2 38 2 41v24q-1 44 1 67q1 45 17 58q12 9 43 18q8 2 13 6q7 6 16 6q8 0 23 -8l4 -2q21 -10 32 -26q16 -23 18 -66q0 -11 1 -34q2 -63 0 -94v-23q1 -42 -8 -58q-8 -15 -23 -19q-4 -1 -8 -1q-6 -1 -13 -3q-5 -2 -5 -17q0 -16 17 -16
q5 0 19 2q5 1 9 2q6 0 18 -1q12 -2 25 -2h114q27 0 27 20q0 24 -12 24q-3 0 -12 -1q-11 -2 -16 -2z" />
    <glyph glyph-name="o" unicode="o" horiz-adv-x="529" 
d="M417 393q-18 15 -31 17q-72 15 -120 15q-8 0 -17 3q-7 3 -17 3q-54 0 -119 -52q-7 -5 -11 -8q-18 -12 -32 -37q-19 -38 -28 -69q-14 -56 -14 -82q0 -32 20 -66q47 -79 126 -115q42 -18 82 -18q66 0 145 38q76 38 97 148q3 15 3 35q0 22 -5 49q-5 28 -21 60q-25 52 -58 79
zM367 145q3 -45 -23 -81q-15 -21 -38 -33q-6 -3 -14 -3q-6 0 -14 2q-34 8 -54 21q-24 16 -35 40q-6 14 -8 23q-1 5 -8 14q-1 1 -3 4q-3 3 -4 6q-2 4 -7 13q-13 25 -14 39q0 9 6 23q3 7 4 11t5 14q7 18 7 25q0 5 -2 14q-2 8 -2 12q0 10 8 26q3 6 14 19q4 4 6 7q38 45 76 45
q28 0 50 -21q22 -22 37 -57q24 -56 25 -91v-5q0 -22 -5 -28q-9 -10 -9 -18q0 -3 1 -11q1 -7 1 -10z" />
    <glyph glyph-name="p" unicode="p" horiz-adv-x="553" 
d="M266 -237q30 0 32 16q0 3 1 9q1 7 1 10q0 7 -12 13q-7 4 -38 4q-28 0 -37 12q-9 11 -3 43q6 43 5 82q-1 30 4 35q6 6 32 4q3 0 11 -1h11q8 0 23 2h4q75 6 138 51q50 36 71 91q16 39 16 88q0 91 -45 137q-34 35 -63 51q-35 19 -72 19q-24 0 -43 -5q-13 -3 -40 -16
q-13 -6 -20 -9t-12 -3q-12 0 -15 8q-2 7 -5 19q-3 13 -14 13q-10 1 -52 -17q-9 -4 -14 -6t-15 -8q-15 -8 -24 -9q-8 -1 -20 -1q-9 0 -14 -19q-2 -8 -2 -11q0 -9 5 -14q5 -4 17 -11q6 -4 8 -5q22 -14 22 -62q0 -20 1 -56t0 -64q0 -18 -4 -56q-4 -42 -4 -64q1 -34 5 -109
q2 -47 3 -72q1 -32 -26 -39q-12 -3 -30 -3h-5q-21 0 -21 -28q0 -9 12 -9h11q26 -1 65 -1q6 0 20 -1q37 -1 58 -3q3 0 11 -2q21 -3 31 -3h32zM363 64q-20 -27 -62 -26h-5q-27 0 -46 17q-22 22 -25 44q-1 9 -6 36q-7 46 -7 75q0 41 33 126q9 28 47 28q59 -2 74 -37
q5 -10 23 -38q24 -36 24 -62q0 -41 -19 -100q-14 -42 -31 -63z" />
    <glyph glyph-name="q" unicode="q" horiz-adv-x="560" 
d="M538 -202q0 22 -45 23q-6 0 -12 7q-2 3 -3 4q-11 14 -15 45q-3 26 4 62q6 30 6 61q1 31 -3 101q-1 9 -1 15q-9 152 10 259q1 7 4 21q3 11 3 16q0 14 -31 14q-11 0 -28 -8q-6 -3 -9 -4l-10 -5q-13 -7 -18 -8t-17 5q-8 3 -11 3q-14 0 -40 11q-21 9 -37 9q-77 1 -135 -38
q-48 -33 -80 -94q-3 -6 -14 -20q-9 -11 -12 -17q-16 -28 -16 -45q0 -14 6 -46q3 -15 4 -24q11 -71 57 -111q50 -45 134 -45q33 0 80 8q17 3 24 3q18 0 22 -6q1 -2 1 -10v-3q0 -4 2 -12q1 -5 1 -8l3 -69q0 -7 -1 -21q-2 -16 -1 -24q3 -26 -12 -38q-15 -10 -34 -10
q-26 0 -26 -13q0 -3 2 -10q1 -4 2 -7q3 -12 19 -12h45q53 0 115 5q30 5 43 5q24 0 24 31zM293 36q-25 0 -52 19q-11 7 -30 27q-12 12 -21 19q-15 12 -27 47q-3 8 -5 13q-7 17 -7 34q0 18 11 61q6 26 7 41q1 22 43 58l7 7q28 25 44 25t44 -18q29 -18 35 -31q19 -41 19 -75
q0 -29 -3 -44q-5 -23 -3 -47q0 -14 4 -44q1 -7 1 -11q6 -49 -15 -67q-17 -14 -52 -14z" />
    <glyph glyph-name="r" unicode="r" horiz-adv-x="393" 
d="M270 -1q14 2 14 14q0 16 -5 24q-3 4 -9 4h-22q-26 0 -37 9q-10 9 -10 33q0 27 -5 76q-3 31 -4 48q-1 13 1 61v14q2 26 13 37q12 12 32 12q21 0 38 -14q2 -1 5 -4q10 -8 18 -8q28 0 47 17q21 18 20 55v3q0 34 -33 34q-36 0 -90 -22q-1 0 -4 -2q-29 -13 -38 -13
q-5 0 -11 23q0 1 -2 6q-1 6 -2 9q-1 4 -10 4q-3 0 -12 -3q-58 -16 -106 -33q-23 -9 -23 -21q0 -9 15 -21q17 -13 27 -33q9 -19 9 -42q0 -11 -4 -33q-3 -15 -3 -29q1 -10 1 -31q3 -56 6 -84q2 -27 -4 -40q-2 -6 -11 -11q-2 0 -3 -1t-4 -3q-8 -5 -16 -5q-12 0 -15 -1
q-2 -1 -4 -6q0 -3 -1 -4q-2 -6 -2 -11q0 -4 3 -6q4 -3 18 -3q12 0 36 1h31q3 0 21 -1h18q9 0 24 -1q25 -1 45 -1q32 0 48 3z" />
    <glyph glyph-name="s" unicode="s" horiz-adv-x="377" 
d="M325 170q-41 42 -91 71q-6 3 -27 13q-37 16 -48 36q-10 16 -10 43q0 33 25 47q11 7 23 7q15 0 30 -13q6 -5 18 -18q13 -14 21 -20q2 -2 10 -8q13 -11 21 -11q12 0 22 23q8 17 8 39q0 14 -29 22q-71 19 -126 19q-90 0 -124 -83q-6 -15 -6 -30q0 -72 60 -104
q50 -27 105 -72q24 -20 24 -53q0 -25 -19 -42q-16 -14 -35 -14q-46 0 -64 28q-13 20 -40 58l-3 5q-5 8 -18 8q-6 0 -13 -3q-5 -2 -5 -9q0 -4 2 -14v-2q4 -24 4 -36q0 -64 62 -67q17 -1 48 -1q6 0 17 -2q9 -1 14 -1q69 0 121 45q41 34 41 94q0 27 -18 45z" />
    <glyph glyph-name="t" unicode="t" horiz-adv-x="371" 
d="M328 96q-12 0 -38 -15q-12 -7 -19 -9l-6 -2q-14 -4 -23 -4q-21 0 -34 19q-15 22 -15 68q0 14 4 26q3 9 3 18q0 7 -2 23q-1 8 -1 12q-3 23 -3 84q0 35 10 44q13 11 76 11h25q17 0 25 5q10 7 10 24q0 5 1 12q1 5 1 11q0 12 -27 12q-2 0 -10 -1q-6 -1 -11 -1q-17 -1 -43 -1
h-16q-21 -1 -26 4t-6 25q-1 6 -1 11q0 3 -1 10q-1 14 -2 19q0 1 -1 3q-1 5 -4 8t-8 3q-3 0 -8 1h-4q-10 0 -18 -9q-38 -46 -110 -99q-4 -3 -7 -5q-4 -3 -4 -13q0 -12 22 -20q2 -1 6 -2q19 -6 21 -19q1 -8 4 -30q4 -28 5 -44q0 -27 1 -86v-75q0 -7 3 -25q4 -18 2 -28
q-1 -4 -1 -11q1 -23 30 -38q23 -12 56 -12q77 0 131 41q6 5 15 14q8 8 8 15q0 2 -1 6q-1 3 -1 5q0 15 -8 15z" />
    <glyph glyph-name="u" unicode="u" horiz-adv-x="541" 
d="M343 7q0 -18 13 -18q5 0 22 4q8 1 13 2q15 2 40 7q24 5 46 6q22 0 32 8q6 5 6 18q0 3 -1 8v5q0 8 -7 8q-9 0 -22 -3q-6 -1 -11 -1q-14 0 -24 8q-10 7 -7 34q2 22 3 70q1 10 1 17q2 64 2 95q1 37 1 110q0 30 -29 30q-30 0 -81 -6q-26 -4 -42 -5q-32 -3 -32 -16
q0 -25 12 -27q5 -1 18 -1q18 -1 28 -12l7 -8q12 -14 9 -41q-8 -74 -11 -111q-1 -14 1 -34t2 -37q0 -16 -6 -27q-12 -18 -41 -30q-22 -10 -46 -10q-23 0 -50 42q-19 32 -12 52q8 21 8 47q0 14 -4 49q-4 28 -3 43q0 20 6 39q4 11 1 36q-1 16 0 25q1 7 1 18q0 8 -7 13
q-7 6 -21 6q-30 0 -92 -9q-15 -2 -23 -3h-3q-16 -3 -16 -14q0 -25 11 -25q30 0 35 -11q7 -16 4 -38q-1 -6 -2 -17q-3 -30 -3 -45q0 -16 2 -54q1 -12 1 -19q0 -3 2 -11q2 -15 0 -22q-5 -14 -5 -31q0 -23 16 -68q4 -11 6 -17q4 -13 23 -26q40 -23 77 -23q50 0 125 31l8 4
q9 4 13 4q6 0 6 -19z" />
    <glyph glyph-name="v" unicode="v" horiz-adv-x="501" 
d="M469 426h-62q-35 0 -99 -6q-11 -2 -11 -19q0 -8 17 -11q23 -3 27 -23q2 -8 -7 -34q-14 -43 -50 -133l-4 -10q-4 -8 -10 -8t-12 12t-16 31q-9 16 -15 28q-4 8 -3 23q1 8 0 11q-2 4 -6 6q-6 4 -9 17q-5 21 -6 46q0 2 -1 8q-3 15 2 20q6 8 19 11q15 5 16 19q1 13 -24 13
q-56 1 -175 -7q-21 -2 -21 -16q1 -25 11 -33q12 -9 28 -11q2 0 7 -1q17 -2 22 -9q4 -6 6 -24q1 -11 4 -17q18 -38 46 -118q14 -38 22 -59t7 -35q-1 -4 0 -7q1 -2 5 -5q8 -7 14 -19l5 -11q11 -26 18 -40q6 -11 11 -18q4 -5 11 -5q10 0 15 1q8 1 18 8q4 3 8 12l2 4
q16 32 47 107q10 24 16 39q3 6 8 19q10 25 16 38l6 15q10 25 17 38q1 2 0 5t1 6q3 6 8 19q7 19 12 29q24 45 63 68q9 6 9 17q0 9 -13 9z" />
    <glyph glyph-name="w" unicode="w" horiz-adv-x="752" 
d="M727 416q-4 13 -28 13h-27q-69 0 -106 -3q-2 0 -5 -1q-11 -1 -15 -3q-4 -3 -4 -13q0 -9 15 -14q5 -2 8 -3q26 -9 32 -22q5 -12 -7 -41q-10 -20 -13 -30q-4 -13 -14 -47q-13 -46 -24 -70q0 -1 -3 -6q-5 -11 -8 -11q-4 0 -12 16q-7 17 -23 54q-32 71 -46 109q-14 40 20 50
q2 1 6 1q19 3 19 22q0 9 -5 12q-7 4 -27 4q-68 0 -161 -7h-6q-16 -1 -17 -13q-1 -14 14 -21q2 0 3 -1q25 -13 32 -31q12 -38 -6 -110q-6 -26 -33 -76q-1 -1 -3 -6q-4 -9 -7 -9q-4 0 -10 17q-4 12 -13 38q-8 22 -12 34q-16 42 -26 62q-15 30 -12 49q3 18 28 39q1 1 4 3
q7 4 7 12q0 13 -18 14q-9 1 -20 4q-11 4 -23 4q-7 0 -20 -4q-8 -2 -12 -2q-29 0 -76 -4q-18 -2 -28 -3q-17 -1 -19 -11q0 -2 -1 -6q-2 -5 -2 -8t2 -4q3 -2 9 -1q6 0 10 -1t11 -2q18 -4 23 -17q3 -7 0 -22q-1 -7 -1 -11q0 -7 11 -25q4 -7 6 -11t7 -12q6 -8 7 -13
q20 -91 69 -163q10 -13 11 -32q0 -5 -1 -15v-5q0 -15 17 -38q2 -2 5 -7q6 -6 8 -12q5 -15 25 -15q41 0 46 19q24 77 49 106q13 16 28 64q5 16 9 25l1 2q4 12 8 12q5 0 10 -11v-1q11 -29 25 -70q7 -19 24 -63q14 -36 21 -55q7 -22 31 -22q6 0 19 2q5 1 7 1q19 2 26 18
q9 23 26 75q8 24 13 37q8 21 26 61q3 8 13 27q12 26 17 41q17 60 36 89q9 17 24 30q10 10 25 19q3 2 3 7q0 4 -2 12z" />
    <glyph glyph-name="x" unicode="x" horiz-adv-x="512" 
d="M191 1h8q11 -1 14 0q7 4 7 10q0 7 -3 10q-2 2 -12 3q-6 0 -8 1q-25 8 -25 23q0 9 5 18q6 10 18 26q4 6 15 19q10 10 14 16q11 12 18 12q9 0 18 -17q5 -11 17 -24q1 -2 1 -3q0 -2 2 -5q3 -4 8 -13q3 -5 5 -8q19 -28 -4 -40q-1 0 -2 -1q-4 -1 -5 -3t-1 -11v-3q0 -13 4 -13
h6q5 1 11 1q9 0 33 1h29q16 1 66 0h10q22 0 43 -2q4 -1 6 -1q4 0 7 17v3q2 13 -2 15q-3 2 -14 2h-2q-22 0 -43 25q-18 23 -47 64q-7 10 -11 16q-2 3 -8 14l-3 6q-2 3 -8 6q-5 2 -7 5q-6 8 -18 29q-7 12 -12 19q-8 13 -8 16q0 2 6 9l6 8q13 18 33 42q6 7 10 12t17 14
q7 5 11 9q5 5 15 18q20 25 35 33q9 5 35 5h2q5 0 9 4q6 6 6 19q0 10 -20 10q-45 0 -131 -2q-13 0 -37 -4q-2 0 -6 -1q-5 0 -8 -1q-5 -2 -5 -10q0 -7 9 -12q2 -1 8 -6q5 -4 7 -5q9 -5 9 -12q0 -11 -5 -21q-19 -43 -40 -43q-8 0 -25 21q-4 4 -6 7q-7 8 -19 26q-9 13 -6 20
q4 7 15 7q2 0 7 -1h6q5 0 8 2q2 3 2 5v11q0 4 -4 7q-5 3 -19 3t-46 1q-26 1 -41 1q-1 0 -5 -1h-5q-12 0 -38 -1h-34q-10 0 -18 -3q-5 -2 -5 -8q0 -15 8 -20q4 -3 15 -7q3 -1 4 -2q12 -5 21 -17q24 -29 74 -89q15 -16 22 -34q1 -3 5 -8q4 -7 4 -14q0 -17 -8 -30
q-7 -10 -21 -33q-7 -11 -11 -17q-2 -3 -5 -10q-1 -4 -2 -5q-3 -6 -6 -7q-3 0 -5 -4q-17 -26 -47 -44q-23 -14 -54 -17q-26 -2 -26 -27q0 -7 6 -10q5 -2 20 -2h6q15 0 49 1h43h21q20 1 32 0z" />
    <glyph glyph-name="y" unicode="y" horiz-adv-x="467" 
d="M307 135q6 12 14 40q5 17 8 25q3 7 14 23q11 17 14 27q23 81 65 112q1 1 6 4q20 12 20 18q0 21 -11 21q-12 0 -22 2q-12 2 -19 2q-9 0 -26 -1h-21q-8 0 -25 -2q-14 -1 -22 -1q-16 0 -16 -10v-7q-1 -12 6 -19q2 -2 13 -4q13 -4 16 -7q14 -13 4 -36q-6 -14 -21 -46
q-13 -26 -19 -40q-5 -8 -13 -27q-2 -5 -3 -7q-2 -4 -6 -13q-6 -11 -9 -19q-5 -14 -15 -14q-9 0 -9 14q1 28 -8 56q-5 16 -21 52q-13 29 -18 45q-1 2 -3 9q-6 19 -2 27q3 7 23 7q6 0 6 5q0 1 -1 5v5q0 9 -6 15t-20 5h-3q-23 0 -55 7q-27 5 -47 5q-3 0 -6 -2q-4 -2 -10 -2
q-4 0 -10 1h-8q-12 0 -19 -5q-4 -3 -6 -9q0 -1 -1 -4q-1 -6 -1 -8q0 -9 11 -15q22 -10 36 -14q8 -2 8 -21q0 -9 2 -13q12 -27 27 -92q10 -39 18 -62q5 -13 21 -37q7 -11 11 -18q2 -4 4 -16q2 -13 6 -16q11 -10 20 -26q9 -18 9 -39q0 -18 -6 -34q-12 -34 -48 -102
q-5 -9 -8 -15q-8 -14 -23 -14q-4 0 -13 1q-8 1 -12 1q-21 0 -33 -24q-1 -2 -3 -5q-6 -7 -6 -22q0 -19 22 -32q20 -11 41 -11q47 0 65 38q7 14 23 41l9 15q22 42 27 67q3 15 11 34q4 9 14 28q11 21 15 33q5 12 16 48q15 47 29 73z" />
    <glyph glyph-name="z" unicode="z" horiz-adv-x="443" 
d="M358 8q5 0 19 1q17 1 22 5q9 7 13 42q0 7 7 24q6 13 6 21q0 19 -12 19q-7 0 -15 3q-5 2 -9 2q-15 0 -27 -19q-11 -18 -46 -45q-23 -17 -54 -19q-13 -1 -38 0h-19q-24 0 -24 14q0 10 9 19q35 35 57 72q2 3 7 5q7 2 9 6q6 11 10 28q3 15 8 25t22 31q8 10 12 16q13 19 40 59
q23 32 36 51q1 2 5 5q4 4 5 6q4 8 4 17t-15 13q-40 13 -83 13q-15 0 -23 -1q-6 -1 -20 -2q-27 -3 -41 -4q-36 -2 -53 -1q-2 0 -7 1q-7 2 -11 2q-11 0 -25 3h-2q-21 4 -35 10q-12 5 -19 5q-15 0 -18 -26q-1 -8 -7 -31q-7 -31 -7 -47q0 -20 9 -20q13 0 20 5q7 4 20 14
q15 12 23 16q49 23 71 27q2 0 7 1q10 1 15 1q11 0 26 -3q1 0 6 -1q13 -2 15 -5q2 -5 -8 -17q-3 -4 -10 -12q-13 -15 -18 -25q-5 -9 -14 -34q-13 -33 -26 -46q-17 -19 -41 -61q-12 -22 -19 -32q-6 -10 -18 -24q-10 -12 -15 -20q-1 -2 -3 -7q-3 -6 -5 -9q-3 -4 -11 -15
q-14 -19 -21 -29q-12 -17 -12 -24q0 -11 31 -11q56 -2 112 0q2 0 5 1q5 1 8 1q4 0 9 -1q3 -1 6 -1q106 4 157 8z" />
    <glyph glyph-name="braceleft" unicode="{" horiz-adv-x="398" 
d="M233 268q-5 3 -14 8q-8 4 -11 7q-27 25 -27 30q0 3 17 15q9 5 12 8q34 28 35 54q5 116 -4 191q-4 23 4 47q27 74 76 78q27 2 27 28q0 12 -35 12q-34 0 -71 -17q-77 -32 -81 -101q-1 -6 -3 -22q-5 -28 0 -44q2 -8 -3 -26q-2 -9 -3 -14q-6 -42 -3 -66q6 -34 -2 -77
q-3 -14 -4 -22q-1 -9 -16 -20q-5 -4 -7 -6q-8 -8 -24 -13q-13 -3 -13 -14q0 -6 7 -13q4 -4 16 -11q5 -4 8 -6q31 -21 30 -41q0 -5 8 -19q7 -12 8 -19q0 -8 -6 -24q0 -2 -1 -4q-12 -34 -14 -75q-2 -46 9 -125q2 -11 8 -19q7 -8 19 -26q18 -26 31 -37q32 -27 84 -27q18 0 27 2
q7 2 12 11l1 1q3 4 5 11q1 1 1 2q4 11 -11 13q-2 0 -5 1q-15 3 -21 8q-55 41 -56 76q0 14 -3 47q-3 32 -2 49q2 38 14 65q7 17 7 34q0 40 -13 74q-4 10 -13 16z" />
    <glyph glyph-name="bar" unicode="|" horiz-adv-x="450" 
d="M275 447v9q0 43 1 65q2 49 -1 88v13q-1 10 -2 31q-2 31 -2 47q0 15 -10 15h-5q-6 -2 -15 -2q-36 0 -55 -21q-13 -12 -13 -34q0 -11 4 -26q11 -47 9 -171q0 -8 -3 -25q-1 -8 -1 -12q-1 -4 -2 -10q-1 -14 -1 -20q0 -7 2 -13q7 -27 7 -56q0 -12 -3 -38q-2 -22 -2 -34t2 -37
q2 -21 2 -30q-1 -10 -2 -37q-2 -35 -1 -55q1 -71 -5 -114q-1 -10 -3 -31q-2 -17 -3 -26q-1 -7 -1 -20q0 -4 1 -12v-8v-6q0 -10 -1 -16q-1 -4 -1 -12q0 -28 46 -28q37 0 47.5 9.5t10.5 45.5q0 4 -2 14q-1 11 0 16q1 30 5 95v18q1 24 0 36q-1 7 -3 23q-3 30 -3 47q-2 26 0 52
q2 35 0 107v54q0 4 1 20q2 14 2 19q-2 22 -1 47q1 13 1 23z" />
    <glyph glyph-name="braceright" unicode="}" horiz-adv-x="400" 
d="M294 330q-16 9 -30 22q-7 5 -11 9q-12 10 -15 23q-4 21 -4 60v9q0 15 5 53q4 29 3 45v14q-1 21 0 28q1 8 1 23q0 18 -15 52q-6 12 -9 20q-7 16 -23 23l-10 5q-46 21 -70 29q-8 3 -25 3q-4 0 -13 -1h-11q-15 0 -15 -11v-4q0 -16 6 -20q12 -10 43 -25q9 -5 16 -9
q33 -21 32 -58q-1 -15 0 -43v-28q0 -4 -2 -18q-2 -12 -2 -16l-1 -15q-3 -36 -4 -60q-1 -7 -4 -20q-2 -7 -2 -10q0 -6 2 -12q2 -5 2 -9q2 -33 28 -53q3 -2 12 -10q7 -7 10 -9q8 -5 8 -8q0 -2 -8 -9q-42 -33 -58 -107q-5 -25 2 -61l4 -16q4 -18 4 -24v-46q0 -58 -6 -90
q-5 -26 -27 -39q-8 -5 -27 -12q-15 -5 -24 -11q-6 -4 -6 -27v-2q0 -7 14 -7q33 0 80 16q104 35 104 133q0 44 -3 66q-10 62 -11 93q-2 40 6 71q7 31 26 39q8 4 25 13q7 4 12 6q13 7 13 14q0 11 -4 13q-1 1 -6 3q-8 2 -12 5z" />
    <glyph glyph-name="asciitilde" unicode="~" 
d="M234 797q7 -5 19 -16q15 -12 30 -19q55 -25 88 -25q78 0 119 75q7 13 5 35q-1 19 -18 19q-22 0 -31 -6q-10 -5 -15 -13q-4 -7 -11 -12q-5 -3 -14 -7q-8 -3 -12 -7q-14 -14 -26 -14q-8 0 -15 4q-12 7 -40 23q-41 22 -61 34q-26 15 -66 15q-28 0 -54 -10q-7 -3 -22 -17
q-6 -6 -9 -8q-2 -2 -9 -6q-12 -7 -19 -16q-20 -26 -20 -53q0 -8 8 -16l2 -2l4 -4q6 -7 13 -7q12 0 20 6q17 13 45 43q15 17 34 17q13 0 29 -5q3 -2 10 -3q10 -1 16 -5z" />
    <glyph glyph-name="nonbreakingspace" unicode="&#xa0;" horiz-adv-x="250" 
 />
    <glyph glyph-name="exclamdown" unicode="&#xa1;" horiz-adv-x="307" 
d="M117 166q0 -11 1 -27v-1q0 -4 -4 -16q-6 -17 -8 -30q-1 -9 -4 -35q-4 -31 -7 -50q-1 -6 -1 -13q0 -6 1 -18q1 -23 -2 -38q-1 -4 -3 -15q-5 -24 -13 -36q-2 -3 -11 -9q-9 -7 -9 -12t6 -14t14 -12q6 -2 15 -6l6 -3q10 -4 16 -17q6 -10 16 -21q13 -13 28 -13q18 0 29 19
q1 2 2 3q2 3 4 10q3 6 6 10q5 5 24 12q3 2 6 3q23 9 23 22q0 18 -14 29q-16 12 -23 35q-3 11 -7 33q-3 16 -6 31q-6 28 -9 92q-1 18 -2 26q-3 33 -3 73q0 29 -2 36q-6 30 -6 34q0 15 -11 15q-30 0 -35 -2q-6 -3 -8 -14q-6 -48 -9 -71v-10zM250 420v1q-1 7 -16 16q-4 3 -6 4
q-5 3 -18 11q-16 10 -21 20q-17 34 -32 34q-18 0 -22 -20q-2 -8 -11 -18q-3 -3 -4 -5q-12 -17 -35 -28q-12 -5 -12 -18q0 -10 18 -21q12 -8 23 -22q6 -8 11 -19q3 -7 7 -13q13 -19 22 -19q15 0 22 14q4 6 10 20q9 18 20 26q4 3 14 8q9 5 14 8q16 11 16 21z" />
    <glyph glyph-name="cent" unicode="&#xa2;" 
d="M326 66q4 29 4 82v32v33q0 4 3 9q2 5 2 8v11q-1 8 -1 13q1 8 2 25q4 46 3 68v15v13q1 0 7 -4q8 -4 11 -7q7 -5 19 -20q15 -20 28 -20q19 -1 33 6q4 2 8 6q2 3 4 5q1 1 4 2q7 4 11 14q7 15 7 29q0 9 -18 18q-3 1 -10 6q-12 8 -21 9q-3 0 -11 1q-26 4 -40 4q-6 0 -18 2
q-7 1 -11 2v2q2 10 2 21q0 12 3 35q2 14 2 20q1 26 -7 27q-2 0 -7 -2t-8 -3q-5 -1 -10 -4q-3 -2 -4 -2q-10 -2 -14 -6q-5 -6 -5 -23v-7q1 -8 1 -10q0 -1 -1 -4q-1 -4 -1 -8q2 -29 1 -40q-15 -3 -28 -6q-5 -2 -17 -3q-9 -1 -17 -3q-9 -3 -19 -12q-5 -3 -8 -5q-27 -14 -44 -28
q-9 -8 -18 -22q-4 -6 -7 -9q0 -2 -4 -2q-7 -2 -10 -7q-1 -1 -2 -7q-1 -7 -3 -10q-7 -13 -9 -21q-4 -9 -6 -23q-2 -9 -4 -15q-1 -4 -3 -13l-3 -12q-7 -17 -7 -46q0 -59 24 -96q2 -3 5 -9q4 -9 7 -13q3 -2 12 -6q7 -3 10 -7q2 -1 8 -7q28 -27 57 -36q31 -10 52 -10q6 0 14 2
q2 -10 1 -33v-16q1 -11 -4 -25q-1 -3 -1 -5q-3 -9 -3 -19t13 -10q1 0 4 1q2 1 3 1q2 0 6 1l4 2q10 3 14 8q13 14 13 24v19q-1 14 -1 22q1 10 1 22q0 2 -1 5v5q9 -1 19 0q43 2 77 32q30 26 34 35q2 4 2 17t-26 13q-20 0 -42 -9q-4 -2 -16 -10q-10 -6 -13 -8q-11 -4 -32 -4z
M278 81q-2 1 -4 3q-40 35 -59 70q-13 21 -15 33q0 3 -2 13q-5 20 -5 33q0 37 15 72l4 12q3 13 7 18q7 9 17 21q22 28 50 28h5q0 -5 -1 -7q-5 -19 -4 -59q0 -26 -2 -40q-3 -39 -1 -76q0 -5 -1 -15q-1 -5 -1 -6q0 -6 1 -18v-13q-1 -24 -2 -38q-1 -10 -2 -31z" />
    <glyph glyph-name="sterling" unicode="&#xa3;" 
d="M462 587q9 8 12 20q1 2 2 7q2 8 3 11q2 6 5 13q2 6 2 8q0 13 -8 24q-12 16 -34 18q-7 0 -20 4q-9 3 -14 3q-4 0 -11 1q-11 1 -17 0q-12 -2 -31 -12q-13 -7 -23 -10q-12 -4 -31 -17q-7 -4 -20 -15q-21 -17 -34 -24q-46 -23 -80 -77q-5 -7 -8 -30q-2 -14 -5 -19
q-15 -32 -17 -55q0 -5 3 -13q3 -7 3 -12q0 -2 -2 -8q-1 -6 -1 -7v-17q0 -12 -1 -14q-5 -7 -22 -8q-6 -1 -20 0q-13 1 -18 -1q-8 -3 -22 -9q-9 -3 -12 -5q-13 -5 -13 -11q0 -10 12 -18q14 -9 32 -10q7 0 22 1q18 1 27 0q10 0 12 -2q7 -6 10 -21q2 -10 1 -32v-9q0 -36 -23 -80
q-2 -4 -6 -18q-7 -24 -14 -33q-18 -20 -52 -39q-26 -15 -26 -29q0 -33 8 -42q5 -5 20 -7q8 0 12 -1q11 -3 18 -1q9 1 19 11q4 4 9 13q2 5 5 7q2 3 7 9q5 8 8 10q11 9 26 9t40 -5q7 -2 11 -3q5 -1 20 -12q7 -5 11 -7q6 -3 15 -4q8 0 13 -3q53 -27 89 -27h3q26 -1 38 7
q5 4 18 8q11 2 17 6q3 2 11 7q20 13 34 27q2 2 9 11q4 4 5 6q19 22 40 62q15 28 15 48q0 9 -11 19q-2 1 -4 4q-4 5 -12 5t-14 -14q-22 -58 -42 -73q-15 -12 -21 -13q-8 -1 -24 -6q-12 -4 -18 -4q-29 0 -54 12q-11 6 -27 11q-4 1 -13 4q-6 2 -11 3q-6 2 -18 -1q-6 -1 -10 -1
q-4 -1 -17 4q-11 3 -16 3q-26 0 -46 -5q-1 -1 -5 -2q-9 -3 -9 -2q-1 4 7 9q39 27 65 62q14 18 18 43q2 18 8 39q1 4 2 11q4 17 6 19q3 3 29 3h7q21 1 31 3q10 3 29 -1q7 -2 12 -2q4 0 16 1q9 2 16 2q30 2 47 37q5 8 8 19q0 1 1 3q1 3 1 4q0 2 -2 5q-4 5 -9 5q-12 0 -41 -9
q-8 -2 -25 -2h-8q-5 0 -15 -2q-14 -1 -22 -1q-12 0 -29 -1q-9 -1 -13 -1q-30 0 -35 9q-2 4 -4 14q-1 10 -1 35v5q0 13 -6 31q-2 7 -2 10q0 4 5 16q3 9 3 14q0 9 3 27q3 15 3 26q0 26 20 52q13 17 35 17q28 0 49 -13q7 -4 19 -7q8 -2 12 -6q12 -11 32 -11q10 0 18 7z" />
    <glyph glyph-name="currency" unicode="&#xa4;" 
d="M68 530q0 -9 4 -14l12 -14q28 -36 50 -61q-9 -9 -21 -19q-10 -9 -18 -21q-24 -37 -24 -101q0 -38 10 -54q3 -5 5 -20q1 -6 3 -9q8 -24 22 -44q-3 -3 -12 -14q-11 -15 -18 -23q-6 -7 -19 -19q-18 -16 -18 -22q0 -12 8 -18q3 -2 7 -6q3 -3 5 -4q15 -14 25 -14q6 0 16 14
q6 8 9 11l49 49q31 -28 90 -28q37 0 53 5q23 7 37 15q3 1 8 4q11 6 16 9q2 -3 10 -13q13 -14 22 -25q1 -2 8 -12q23 -30 44 -17q5 4 25 19q5 3 7 4q17 12 3 26q-3 3 -9 12q-7 10 -15 19q-2 2 -10 8q-7 5 -9 7q-5 5 -11 13q-4 7 -8 11q20 22 31 52q16 42 16 92q0 25 -11 58
q-7 24 -22 49q-3 6 -10 16q12 18 28 31q28 23 45 47q8 11 -4 18q-1 1 -4 3q-11 7 -18 14q-7 5 -14 5q-9 0 -19 -10q0 -1 -1 -1q-5 -6 -19 -21q-6 -7 -9 -11l-6 -6q-22 -24 -27 -28q-11 7 -22 11q-4 1 -11 5q-9 5 -19 8q-17 4 -34 4q-14 0 -30 -4q-4 -1 -13 -5q-8 -5 -12 -6
q-3 -1 -10 -3q-24 -7 -33 -13q-2 2 -8 9q-9 10 -15 17q-3 4 -14 14q-13 14 -17 22q-14 27 -49 8q-7 -3 -13 -11q-3 -4 -4 -5q-8 -5 -8 -12v-1zM206 417q33 24 67 24q33 0 65 -30l9 -9q36 -31 36 -90q0 -29 -12 -55q-4 -8 -6 -23q-1 -4 -2 -6q-10 -20 -29 -30q-2 -2 -9 -6
q-26 -14 -47 -14q-36 0 -68 27q-15 13 -26 29q-1 0 -1 1q-5 6 -8 20q-1 6 -2 9q-2 9 -1 31v15q0 62 12 83q9 15 22 24z" />
    <glyph glyph-name="yen" unicode="&#xa5;" 
d="M333 217q5 1 18 2q18 2 28 2q6 0 17 -1q12 -1 23 -1q14 0 27 3q7 1 12 1q10 0 16 9q12 17 12 45q0 12 -37 13q-11 0 -33 -3q-18 -3 -28 -3q-8 0 -29 2q-14 2 -19 2v26v9v8q-1 19 7 27h8q37 -1 54 -2q8 0 25 1q13 1 24 1q23 0 23 12q0 17 -3 26q-3 13 -36 13q-6 0 -22 2
q-18 3 -26 2q4 6 21 21q19 16 43 57l10 15q3 6 12 23q16 31 31 38q14 7 33 23q13 11 23 17q5 3 16 7l6 3q9 4 9 16q0 14 -19 14q-13 0 -21 1q-4 0 -7 1q-20 1 -50 1h-17q-20 0 -51 3q-27 3 -34 0q-4 -1 -12 -4q-16 -4 -16 -23q0 -21 22 -25q3 0 11 -1q25 -3 29 -11
q5 -7 -15 -42l-2 -4q-4 -9 -5 -11q-8 -14 -24 -33q-8 -11 -14 -18q-1 -2 -14 -18q-10 -12 -12 -15q-6 -8 -11 -18q-3 -6 -7 -12q-12 -17 -27 -18q-5 0 -16 12l-6 6q-17 13 -37 61q-2 6 -4 10q-5 11 -19 25q-9 9 -11 13q-6 9 -15 28q-2 3 -7 10q-9 14 -9 20q0 13 13 13
q4 0 15 2q7 2 9 2q20 0 20 29q0 11 -16 14q-2 1 -5 2q-12 4 -39 3h-10t-14 1q-13 2 -19 0q-12 -3 -30 -2q-7 1 -12 1t-17 -1h-23h-20q-25 0 -40 -1q-2 0 -8 -1q-17 -1 -22 -5q-6 -4 -6 -21q0 -16 8 -19q5 -2 23 -2q33 0 51 -25q14 -19 43 -59q20 -25 30 -39q15 -21 24 -30
l9 -12q6 -7 9 -11q-12 0 -30 -4q-14 -4 -26 -4h-6q-20 1 -23 -6q-5 -10 -5 -26q-1 -28 20 -29q15 -1 31 0q7 1 11 1h15q13 1 22 1q3 0 11 1q10 2 17 2q1 0 6 -1h5q5 -11 11 -33q1 -4 2 -6q4 -15 8 -32q-3 0 -12 -1q-27 -4 -54 -4h-29h-17h-16q-20 0 -25 -6q-10 -10 -10 -29
q0 -15 15 -24q8 -4 35 -4h12q18 1 29 1q4 0 17 1q24 2 44 2q5 0 16 1h4q1 -20 -2 -40q-4 -18 -2 -60q1 -14 1 -22q2 -43 -20 -49q-16 -3 -57 -4h-2q-11 0 -14 -3q-5 -6 -3 -24v-4q0 -13 13 -19q6 -2 22 -2q9 0 28 -1q36 -1 55 1q16 2 48 -2q21 -2 33 -2h38h34q34 0 34 21v5
q1 16 -5 19q-24 13 -45 14q-32 0 -42 12.5t-10 50.5q0 7 2 26q3 23 3 35q-1 11 -4 29q-1 7 -1 11z" />
    <glyph glyph-name="brokenbar" unicode="&#xa6;" horiz-adv-x="450" 
d="M178 171v-17q1 -26 0 -35q-1 -10 -2 -31q-1 -20 -2 -33q-1 -12 0 -36v-18q4 -65 5 -95q1 -5 -1 -18q-1 -8 -1 -12q0 -36 10 -45.5t48 -9.5q40 0 40 28q0 5 -2 13q-1 6 0 14v7q0 2 -3 10q-6 16 -6 28q0 23 6 41q3 10 3 18q0 17 -2 50q-3 36 -3 57q0 9 1 33q2 47 2 68
q0 9 -15 16q-4 2 -7 3q-22 12 -54 -3q-17 -7 -17 -33zM260 365q9 0 9 15q0 10 -2 34q-1 13 -1 16q-2 93 9 202q2 15 2 31q0 24 -12 35q-16 17 -50 17h-19h-5q-10 0 -10 -15t-3 -52q-1 -16 -1 -26q0 -5 -1 -17q-3 -34 -2 -81q1 -20 2 -53q1 -40 1 -55q0 -24 11 -36
q14 -15 72 -15z" />
    <glyph glyph-name="section" unicode="&#xa7;" horiz-adv-x="615" 
d="M357 692q-17 0 -34 -6l-12 -4q-21 -7 -35 -15q-8 -5 -22 -17l-6 -6t-8 -6q-37 -31 -51 -52q-1 -2 -5 -9q-7 -9 -9 -13q-5 -11 -4 -34v-9q0 -6 1 -15v-5q-5 -5 -13 -14q-22 -26 -34 -46q-25 -42 -25 -111q0 -54 13 -71q15 -21 29 -48q9 -19 18 -33q25 -40 42 -57
q19 -19 52 -36q18 -9 29 -20l17 -17q12 -14 20 -20q34 -27 35 -56q1 -18 -21 -26q-5 -1 -17 -8q-17 -9 -31 -9q-29 0 -62 17q-9 6 -24 17q-8 5 -12 7q-11 6 -24 6q-12 0 -21 -21q-1 -4 -1 -15q1 -3 1 -5q0 -6 -2 -15q-1 -5 -1 -8q0 -16 11 -30q2 -2 6 -7q8 -11 13 -14
q10 -6 36 -9q5 -1 9 -1q10 -2 20 -2q18 0 48 9q36 10 51 21q6 4 20 9q15 5 22 11q11 11 37 41q8 10 12 14q16 19 35 52q5 9 7 12q23 31 27 60q4 31 10 52q11 42 11 69q0 65 -39 120q-6 9 -27 27q-14 13 -21 21q-4 4 -18 19q-35 38 -63 64q-9 9 -29 30q-24 25 -39 39
q-26 25 -26 56q1 23 13 31q2 1 7 4q11 9 25 9h10q13 0 20 -4t33 -13l9 -3q16 -6 28 -16q4 -3 7 -5q7 -4 15 -2q2 0 8 1q10 0 14 4q7 8 8 32q0 8 2 23q1 6 1 8q2 27 -57 42q-21 6 -38 6h-1zM425 38q-23 65 -75 118q-5 6 -16 18q-17 19 -28 30q-2 2 -20 13q-14 9 -16 11
q-5 5 -19 15q-26 19 -42 45q-5 9 -17 34q-5 11 -8 16q-24 45 -17 66q3 8 6 24q5 26 17 36q22 -35 70 -78q6 -5 17 -21q10 -12 15 -17q10 -9 30 -24q16 -12 24 -20q7 -7 22 -31q15 -25 26 -32q52 -36 52 -117q0 -61 -21 -86z" />
    <glyph glyph-name="dieresis" unicode="&#xa8;" 
d="M235 557q11 13 11 33q0 26 -27 39q-15 6 -44 6h-5q-19 0 -28 -7q-4 -2 -10 -6q-19 -13 -19 -28q0 -18 13 -37q7 -12 22 -17q4 -1 15 -5q13 -4 24 -4q26 0 48 26zM366 639q-9 0 -26 -4q-6 -2 -9 -2q-10 -2 -17 -12q-10 -16 -10 -31q0 -14 11 -26q28 -29 58 -29q22 0 41 14
q23 17 23 49q0 15 -13 24q-2 2 -12 4q-2 1 -3 1q-2 1 -6 4q-4 4 -7 5q-15 3 -30 3z" />
    <glyph glyph-name="copyright" unicode="&#xa9;" horiz-adv-x="920" 
d="M559 136q30 6 45 36q4 10 6 16q2 9 6 15q6 11 6 24v8q0 26 -29 26q-28 0 -34 -28q-8 -36 -32 -56q-8 -7 -27 -7q-30 0 -57 16q-48 28 -57 82q-1 6 -6 19q-7 20 -7 37v10q-1 15 -1 23q0 32 23 86q1 3 2 9q2 8 5 12q1 2 3 7q5 11 11 15q4 3 13 9q20 15 36 20q17 5 30 5
q3 0 9 -2q3 -2 5 -2q11 -2 23 -10q10 -8 19 -33q1 -2 3 -7q3 -8 4 -13q4 -15 17 -17q2 -1 7 -3t8 -2q23 0 23 24q0 4 -1 13v5q-1 15 -5 37q-6 28 -26 29q-6 0 -15 6q-7 4 -13 6q-35 9 -80 9q-19 0 -59 -7q-10 -1 -21 -7q-9 -5 -29 -20q-8 -7 -14 -11q-18 -13 -26 -24
q-5 -8 -12 -15q-9 -10 -19 -36q-1 -3 -4 -11q-2 -4 -2 -6q-2 -3 -3 -8t-2 -8q0 -1 -2 -6q-6 -12 -6 -29v-2v-2q0 -3 -1 -15q-1 -16 -1 -28v-10q2 -55 24 -93q19 -34 51 -63q17 -15 36 -21q38 -14 56 -14q7 0 21 -1q12 -1 18 -1h5q12 1 15 1h1q16 0 35 6q13 5 16 5zM459 715
q-53 0 -126 -23q-17 -6 -29 -9q-35 -10 -111 -84q-16 -15 -23 -22q-87 -78 -87 -238q0 -110 49 -189q43 -68 62 -86q25 -24 73 -50q94 -50 192 -50q18 0 59 7q24 5 38 5q30 2 87 35l6 4q13 8 36 30q26 24 44 32q52 23 77 118q3 13 11 39q19 67 19 106t-20 118q-3 10 -5 17
q-22 86 -79 127q-84 61 -117 77q-76 36 -156 36zM479 24q-144 0 -227 80q-65 63 -84 163q-1 8 -7 29q-8 29 -8 44q0 136 104 230q5 4 15 16q15 17 24 23q13 8 42 18q10 4 16 6q51 19 105 19q9 0 30 -2q9 -1 14 -1q68 -4 133 -51q2 -2 8 -6q12 -7 17 -12q2 -1 5 -10
q5 -15 12 -21q2 -2 10 -9q22 -19 33 -38q45 -75 45 -162q0 -36 -18 -100q-4 -12 -6 -19q0 -3 -4 -18q-9 -35 -18 -49q-10 -14 -41 -36q-15 -10 -22 -17q-88 -77 -178 -77z" />
    <glyph glyph-name="ordfeminine" unicode="&#xaa;" horiz-adv-x="437" 
d="M387 380q0 7 -12 7q-2 0 -8 -1q-6 -2 -11 -2q-13 0 -22 9q-10 9 -7 30q1 6 -3 21q-2 9 -2 13q0 14 1 45q1 20 1 35v19q-1 12 -1 19q0 28 -5 43q-1 2 -1 5v5l-2 5q-5 13 -10 19q-24 34 -71 34q-17 0 -26 -3q-4 0 -11 -2q-23 -6 -37 -12q-6 -2 -25 -14q-3 -1 -4 -2
q-2 -1 -9 -5q-16 -8 -37 -27q-7 -6 -11 -18q-4 -7 -8 -13q-8 -10 -8 -18v-1q-1 -9 4 -15q3 -4 11 -3h2q16 0 48 10q11 4 13 9q11 18 11 32q1 4 1 15q0 13 3 16q9 9 22 9q29 0 45 -16q15 -13 20 -30q3 -6 3 -30q0 -12 -3 -36q-2 -7 -15 -10q-21 -7 -38 -14q-5 -2 -8 -3
q-7 -2 -22 -7q-16 -5 -25 -8q-23 -7 -51 -27q-29 -21 -29 -56q1 -17 15 -37q19 -29 66 -29q11 0 24 3q8 2 14 2q15 1 33 7q10 4 18 6q3 0 10 4q8 4 11 4q7 0 9 -7l3 -6q17 -19 37 -19q33 0 49 5q24 9 39 21q9 7 9 19zM239 426q0 -18 -12 -27q-1 -1 -6 -4q-15 -13 -36 -13
q-12 0 -25 8q-4 3 -6 4q-4 2 -7 10q-7 16 -7 21v5q-1 15 13 24l44 22q19 8 29 8q12 0 13 -21v-30v-7z" />
    <glyph glyph-name="guillemotleft" unicode="&#xab;" horiz-adv-x="442" 
d="M238 386q-1 5 -17 15q-3 2 -4 3l-2 1q-7 6 -9 5q-5 0 -11 -7l-7 -7q-18 -16 -33 -33q-7 -7 -17 -18q-8 -10 -19 -21q-7 -7 -23 -17q-17 -11 -23 -20q-9 -11 -22 -20l-14 -12q-9 -7 -9 -16q0 -23 3 -26q5 -6 13 -12q5 -4 14 -10q5 -2 7 -4q3 -3 12 -11q15 -14 28 -22
q22 -15 37 -32q7 -9 14 -17q7 -7 19 -21q19 -21 26 -22q9 -2 17 7q2 2 10 7q10 6 9 9q-2 10 -13 24q-2 2 -9 8q-11 10 -14 16q-6 11 -24 36q-22 33 -43 55q-4 4 -3 11q0 4 11 16q5 4 7 7q7 8 17 23q7 11 13 18q10 10 27 37q4 6 6 10q4 5 12 17q14 19 14 23zM418 386
q-1 7 -10 13l-2 2q-1 0 -4 3q-8 7 -16 6q-3 0 -9 -7q-4 -5 -8 -8q-14 -13 -54 -43q-4 -3 -7 -5q-10 -7 -36 -36q-16 -18 -21 -22l-21 -21q-8 -9 -14 -14t-6 -15v-6q-1 -10 1 -12q6 -8 13 -13q8 -6 22 -21q15 -16 26 -23q4 -3 17 -17q12 -14 19 -20q17 -15 33 -26
q12 -9 30 -24q10 -8 14 -10q8 -4 17 2q17 11 16 16t-24 38q-9 13 -11 17q-2 3 -10 12q-11 11 -15 18q-5 9 -17 23q-6 6 -10 12q-18 24 -20 31q0 4 6 10q3 4 5 7q13 16 27 36q3 5 5 8t11 13q7 8 9 10q15 23 23 33q22 27 21 33z" />
    <glyph glyph-name="logicalnot" unicode="&#xac;" 
d="M436 292q8 -7 -1 -17q-3 -3 -5 -24q-1 -7 -1 -12q-2 -11 -2 -38v-13q0 -6 -2 -15q-2 -7 -2 -11q0 -8 4 -23q1 -4 2 -6q3 -19 18 -21q3 0 13 -1q21 -1 29 -1q14 0 18 4q4 5 3 38q-2 23 0 34q1 14 2 35q0 4 2 17q1 10 1 13q0 26 -4 48q-1 8 -2 13q0 4 3 29q1 7 1 11
q2 13 -13 14q-29 0 -45 2q-17 2 -57 2q-6 0 -28 -1h-22q-17 0 -56 -2q-31 -2 -48 -2q-15 0 -33 4q-7 2 -11 2q-19 0 -43 -2h-12q-8 0 -30 -1q-27 -1 -39 -1h-17q-7 -1 -9 -1q-17 0 -17 -16v-6q0 -17 3 -32q0 -1 1 -4q1 -14 8 -14q3 -1 11 0t13 1h25h21q4 0 31 -1
q21 -2 25 -2q2 0 28 3q32 3 39 3q29 0 85 -3q43 -2 75 -2h11q24 1 27 -1z" />
    <glyph glyph-name="uni00AD" unicode="&#xad;" horiz-adv-x="352" 
d="M51 163q0 -14 13 -12q3 0 9 2q16 4 33 5q13 1 48 8q22 5 34 6q33 4 47 6q7 1 15 5l6 2q18 5 31 41q1 3 5 12q8 20 8 26q0 8 -5 14q-4 6 -21 6q-30 0 -77 -14q-7 -2 -28 -15q-17 -10 -25 -13q-33 -11 -48 -17t-21 -9q-8 -4 -20 -22q-5 -7 -4 -24v-6v-1z" />
    <glyph glyph-name="registered" unicode="&#xae;" horiz-adv-x="920" 
d="M274 178q-11 -2 -11 -11q0 -21 39 -21q5 0 16 1q8 1 13 1t16 -1q8 -1 13 -1h7q5 1 10 1q3 0 11 -1q6 -1 9 -1q2 0 6 1t8 1q3 0 6 -1q10 -1 17 -1q36 0 36 19q0 16 -12 16q-3 0 -9 1q-5 1 -8 1q-11 0 -24 10q-8 5 -8 16q0 5 2 10q5 16 6 47q0 15 -1 24v3v4q-1 19 -1 29
q0 4 2 4q29 0 84 -86q23 -36 69 -76q12 -11 26 -16q23 -7 43 -8q2 0 8 -1l2 -1q9 -2 16 -2q3 0 14 3l6 2q9 3 9 12v3q0 6 -5 9q-42 25 -63 49q-6 8 -16 19q-6 7 -17 15q-4 3 -6 4q-11 10 -33 55q-3 7 -4 8q-13 21 -24 22q-10 1 -10 3t16 8q4 1 5 2q68 46 68 104q0 16 -16 44
q-1 2 -2 3q-13 19 -37 32q-36 20 -96 20h-19q-12 1 -19 1q-20 0 -58 -2q-13 -1 -35 -3q-16 -1 -20 -1q-3 0 -8 1h-9q-26 0 -26 -12q0 -10 16 -15q1 0 2 -1q12 -4 18 -5l18 -6q11 -4 11 -12v-11v-5q0 -7 1 -14l1 -3q2 -10 2 -13v-6q-1 -4 -1 -6q0 -13 -1 -22q-1 -7 -1 -24v-8
v-17q-1 -19 1 -31q1 -7 1 -13q0 -2 -1 -8v-7v-8q1 -5 1 -8q0 -7 -1 -11q-1 -2 -1 -9q-1 -10 -1 -14q-1 -7 -1 -11v-10q1 -6 1 -9q0 -2 -1 -9v-14v-1q0 -9 -5 -15q-7 -9 -19 -11t-21 -4q-3 -1 -5 -1zM429 521q6 0 20 -4q6 -2 10 -3q21 -3 32 -16q8 -10 18 -36q3 -8 5 -12
q3 -6 3 -12q0 -14 -22 -40q-28 -33 -66 -33q-18 0 -18 18q0 9 2 25q3 26 3 42q0 15 -2 24q0 2 -1 6q-2 7 -2 11q0 30 18 30zM473 -36q106 0 181 44q52 30 84 63q49 50 68 124q29 109 29 161q0 47 -29 119q-35 86 -73 127q-43 46 -115 80q-62 29 -164 29q-89 0 -173 -44
q-92 -49 -137 -112q-60 -83 -60 -179q0 -17 1 -37q1 -12 5 -42q2 -18 2 -26l2 -27q4 -64 28 -102q3 -4 10 -17q36 -59 55 -69q8 -5 35 -23q32 -20 42 -26q81 -43 209 -43zM152 389q0 48 12 68q40 71 74 109q10 10 57 41l4 2q13 9 44 19q7 3 12 5q50 19 105 19q8 0 29 -2
q9 -1 15 -1q68 -4 132 -51l9 -6q12 -7 17 -12q12 -10 25 -33q6 -9 19 -27q15 -17 21 -31q30 -64 30 -147v-24q0 -56 -6 -100q-4 -25 -31 -64q-13 -19 -50 -51l-8 -8q-48 -42 -82 -52.5t-127 -10.5q-89 0 -118 10t-94 63q-29 24 -52 73t-25 90q0 23 -7 48q-4 13 -4 24v25
q-1 15 -1 24z" />
    <glyph glyph-name="macron" unicode="&#xaf;" 
d="M143 561q1 -12 54 -11q12 1 26 1q9 0 35 1q29 2 41 2q23 -1 55 -3q15 -1 18 -1q36 0 37 17q1 33 -4 51q-2 8 -53 5q-3 -1 -4 -1q-22 0 -38 -2q-13 -3 -35 -3h-25h-13h-25h-12h-16l-21 2q-1 0 -6 1q-11 1 -13 -5q-3 -11 -1 -54z" />
    <glyph glyph-name="degree" unicode="&#xb0;" horiz-adv-x="543" 
d="M272 733q-77 0 -137 -68q-22 -26 -31 -56q-4 -16 -4 -48q0 -67 36 -109q23 -28 65 -47q31 -13 69 -14q69 -1 113 34q60 46 60 136q0 68 -41 113q-6 7 -30 17q-11 5 -16 8q-54 34 -84 34zM271 651q23 0 47 -16q32 -22 38.5 -33t6.5 -41v-4q2 -39 -18 -58q-37 -36 -74 -36
q-51 0 -74 25q-15 17 -15 73q0 7 -1 25q-3 29 7 41q12 15 28 25q10 7 35 1q13 -2 20 -2z" />
    <glyph glyph-name="plusminus" unicode="&#xb1;" 
d="M314 613q0 8 1 13v1q0 9 -11 9h-3q-7 0 -23 -1h-13q-17 0 -25 -5q-4 -2 -4 -13q0 -7 2 -23q1 -14 1 -20q0 -10 -3 -24q-2 -11 -2 -21q0 -25 -1 -41q0 -2 1 -13q1 -13 1 -20q0 -27 -6.5 -32.5t-35.5 -5.5q-19 0 -37 1q-1 1 -4 1q-10 1 -17 1q-52 0 -100 -7q-14 -1 -14 -17
q0 -32 8 -43q5 -6 43 -6h17h14q4 0 28 1q45 2 66 2h9q32 1 32 -24q0 -9 -4 -35q-2 -22 -2 -34v-6v-20v-23q-1 -12 -1 -19v-12v-11v-14q-3 -8 -3 -13q0 -12 21 -12q12 1 21 1q10 0 23 -2q8 -1 13 -1q12 0 12 29q-1 3 -1 9v14q0 18 2 35v8q0 13 -4 43q-2 25 -2 35q0 34 4 41.5
t23 7.5q6 0 19 1q7 1 10 1q5 0 18 -2q16 -2 28 -2q7 0 27 1q25 2 37 2q5 0 7 -1h6h8h8q14 0 16 6q0 3 1 11q0 15 3 24v14q0 19 -41 19h-14q-1 0 -12 -1h-23q-11 0 -31 -1q-17 -1 -25 -1q-12 0 -34 -2q-12 -1 -17 -1q-14 0 -19 5q-2 2 -2 10v4v3q0 18 4 48q1 10 1 15
q0 2 1 13v21q0 10 -1 31q-2 16 -2 28v9q1 7 1 9v2zM409 66h-2h-6q-5 0 -17 -1h-9q-3 0 -15 1q-14 1 -21 1q-10 0 -31 -3q-17 -2 -26 -2q-42 0 -75 7q-26 6 -72 6q-10 0 -58 -4q-26 -2 -30 -2q-18 0 -18 -27q0 -2 2 -15q1 -15 1 -22q0 -13 15 -16q5 -1 14 -1h13q8 1 13 1h17
q21 1 42 1q6 0 28 -1q18 -2 23 -2h1q11 0 35 -1h34h18q13 1 15 1h3q14 0 31 -1h14q22 0 50 -1h14q7 0 27 2q25 2 37 2q6 0 18 1h9q19 0 19 16q0 27 -6 52v4q-2 12 -9 12h-5q-11 1 -19 1q-11 0 -26 -4q-12 -3 -22 -3q-3 0 -13 -1q-9 -1 -13 -1z" />
    <glyph glyph-name="twosuperior" unicode="&#xb2;" horiz-adv-x="385" 
d="M260 395v0q-50 -5 -83 -8h1h-5q-2 0 -10 1h-11h-3q-13 0 -15 4q1 3 1 6v3q3 3 4 5q2 4 6 8q49 47 77 83l4 5l13 15q4 7 11 11q6 3 8 6q10 14 25 44q3 5 5 9q2 5 4 9q12 25 18 34q3 3 7 8q8 9 8 17q0 7 -1 17q-2 10 -7 25q-4 12 -4 14l-2 8q-3 12 -14 15h-1q-19 4 -37 14
q-8 5 -12 7q-6 3 -18 3q-13 0 -30 -2h1l-88 -8t-19 -6q-17 -10 -36 -23l-9 -6q-19 -13 -24 -18q-6 -7 -6 -19q0 -9 10 -18v-1l1 -1l1 -1q2 -3 5 -4q1 -1 2 -1q3 -3 7 -3h2l4 -1h7q11 0 16 6q1 1 3 4q11 16 23 26q16 13 39 19h1q1 0 4 1h1q15 5 21 5q4 0 15 -2q4 0 7 -1h1
q11 -1 20 -6q5 -4 8 -14q0 -4 2 -9q1 -2 3 -5t3 -5v-1v-3l-1 -1v-4q-3 -12 -8 -22q-2 -4 -6 -10q-5 -9 -7 -14v-1v-1q-2 -6 -3 -8l-6 -10l-3 -5q-2 -3 -3 -11q0 -6 -2 -8q-1 -3 -8 -12q-5 -7 -8 -11q-3 -5 -4 -10v-3q-3 -4 -9 -11q-9 -12 -12 -18q-1 -10 -22 -28
q-6 -5 -11 -10q-2 -2 -5 -6q-2 -3 -3 -4q-19 -21 -25 -28q-19 -22 -25 -27q-8 -8 -11 -12l-2 -2q-1 -2 -3 -2q-2 -2 -4 -3q-3 -3 -12 -15q-4 -6 -4 -12q1 -9 28 -10q11 0 21 1t11 1h1h3h1q4 0 10 1h2h3l44 -3h1h20q25 0 35 -1q41 -6 67 -6q27 0 57 6q34 7 36 28v1q1 4 1 6
q1 27 6 39q0 2 3 6q4 7 4 12q0 13 -24 13q-40 1 -49 -18l-2 -4t-1 -3q-11 -22 -35 -26z" />
    <glyph glyph-name="threesuperior" unicode="&#xb3;" horiz-adv-x="385" 
d="M309 426l9 18q1 2 1 6q0 1 1 3v-1q4 10 4 27v2v1q0 2 2 7t2 9q0 30 -37 54h-1q-10 6 -28 14q-5 1 -17 7q-7 3 -8 4q4 3 7 5v1q11 8 52 44q7 7 11 22q0 1 1 2v2l1 2q3 13 3 29q0 5 -2 10q-2 3 -2 4t-1 3q-6 25 -27 34q-55 23 -110 23q-31 -1 -52 -9v-1q-5 -1 -57 -21
q-14 -6 -13 -20q1 -17 22 -17q16 0 44 7q6 2 16 5q23 7 33 7q24 0 41 -18q6 -7 7 -12v-1q1 -6 2 -9q1 -4 1 -7q0 -9 -3 -20q-7 -19 -23 -33q-13 -11 -33 -18q-19 -5 -29 -7q-14 -3 -20 -5q-21 -5 -20 -19q1 -11 15 -17l1 -1q13 -4 37 -3h7q43 0 71 -24q13 -10 15 -23
q0 -2 1 -4q1 -1 1 -2v-1q0 -3 2 -6l1 -1q0 -2 1 -12q-1 -1 -1 -4q0 -2 1 -4v-2q-1 -1 -1 -2q-1 -5 -8 -13q-2 -1 -2 -4l-1 -1h1q-3 -1 -4 -3l-1 -2q-3 -6 -5 -9q-7 -13 -24 -18h1q-11 -3 -24 -7q-14 -5 -25 -8q-15 -3 -24 -3q-4 0 -14 2q-8 2 -12 2q-11 0 -14 -2q-2 0 -7 1
q-6 1 -12 1q-18 0 -19 -15q0 -17 11 -25q27 -17 57 -18q15 0 27 3q28 8 60 16q14 4 29 12q26 14 36 20q13 8 22 16l4 4q4 4 8 10l6 8q1 1 3 2q1 1 1 2h1zM309 426l5 -6l3 1q-3 4 -8 5z" />
    <glyph glyph-name="acute" unicode="&#xb4;" 
d="M304 663q-7 -5 -22 -22q-13 -16 -22 -23q-3 -3 -11 -10q-16 -13 -24 -21q-10 -11 -15 -17l-7 -7q-4 -5 -4 -7q-1 -3 3 -8l2 -4t4 -6q4 -7 6 -9q7 -10 10 -10q1 0 5 1q2 1 7 4q5 2 8 3q1 1 3 2t3 1q1 1 2 1q2 0 4 2q1 1 25 10l4 2q5 2 17 7q3 2 6 3q7 4 22 9q20 8 35 16
q14 9 40 21q5 2 7 3q9 5 3 12q-4 4 -13 16q-4 7 -8 10q-14 17 -28 25q-12 6 -23 6q-24 0 -39 -10z" />
    <glyph glyph-name="mu" unicode="&#xb5;" 
d="M168 -10q13 -3 27 -3q50 0 125 31l8 4q9 4 13 4q6 0 6 -19q0 -18 13 -18q5 0 22 4q8 1 13 2q15 2 40 7q24 5 46 6q22 0 32 8q6 5 6 18q0 3 -1 8v5q0 8 -7 8q-9 0 -22 -3q-6 -1 -11 -1q-14 0 -24 8q-10 7 -7 34q2 22 3 70q1 10 1 17q2 64 2 95q1 37 1 110q0 30 -29 30
q-30 0 -81 -6q-26 -4 -42 -5q-32 -3 -32 -16q0 -25 12 -27q5 -1 18 -1q18 -1 28 -12l7 -8q12 -14 9 -41q-8 -74 -11 -111q-1 -14 1 -34t2 -37q0 -16 -6 -27q-12 -18 -41 -30q-22 -10 -46 -10q-23 0 -50 42q-19 32 -12 52q8 21 8 47q0 14 -4 49q-4 28 -3 43q0 20 6 39
q4 11 1 36q-1 16 0 25q1 7 1 18q0 8 -7 13q-7 6 -21 6q-30 0 -92 -9q-15 -2 -23 -3h-3q-16 -3 -16 -14q0 -25 11 -25q30 0 35 -11q7 -16 4 -38q-1 -6 -2 -17q-3 -30 -3 -45q0 -16 2 -54q1 -12 1 -19q0 -3 2 -11q2 -15 0 -22q-3 -9 -3 -48v-6q1 -7 3 -32q2 -21 2 -27
q1 -15 -1 -46q-1 -25 -1 -39q0 -19 3 -62q2 -26 2 -40q2 -78 42 -78q31 0 38 31q4 18 5 42q0 17 3 28q5 18 2 51q-2 12 -2 20q0 6 -2 20q-1 16 -1 24z" />
    <glyph glyph-name="paragraph" unicode="&#xb6;" 
d="M269 -168h4q26 0 32 9q4 6 5 31q0 6 1 9q0 8 3 29q6 50 7 85v1q0 8 -5 33q-4 20 -4 28v1q0 20 5 59q4 31 4 46l2 49v26q1 4 3 16q2 14 2 22v4q-1 10 -2 36q0 18 -1 27q-2 18 -2 30q0 9 2 21q1 8 1 14q2 36 2 46v13q-1 23 -1 38q0 21 2 35l1 12q2 64 25 64q14 0 15 -76
q0 -6 4 -51q1 -11 1 -14v-93v-7q1 -7 1 -14q1 -3 1 -4v-2q-2 -11 -2 -25q0 -11 2 -35q2 -20 2 -31q0 -7 -1 -16q-4 -81 -4 -101q0 -21 1 -35q1 -10 1 -29q0 -15 -1 -40v-6v-12q-5 -68 -5 -76t-2 -28q-1 -15 -1 -24v-11v-14q0 -24 5 -32q4 -6 30 -8h9q7 -1 17 -2h3q6 -1 8 -1
q9 0 26 3l4 1l22 -1q15 0 15 15q0 16 -11 26q-5 5 -21 7q-13 2 -17 7q-8 10 -8 27q0 5 1 15q1 5 1 8v2v4q0 32 8 47q1 4 1 6v1q-2 16 -2 24v9q0 18 2 54q1 27 1 38q0 66 -2 123q-1 11 -1 17q0 8 1 12q4 43 4 69q0 31 -4 70q-1 7 -1 15t1 26q2 16 2 25v3q0 7 -1 25
q-1 14 -1 21v5q2 41 4 56q1 2 1 7q2 17 8 20q4 1 22 3q19 1 25 5q3 2 3 11q0 7 -3 23q-1 5 -1 7q0 7 -25 7h-4h-3t-10 2q-10 3 -18 3h-11q-25 -1 -47 -1h-9q-4 0 -14 1q-12 2 -19 2q-5 0 -10 -1h-14t-27 1q-33 1 -54 1q-15 -1 -40 -5q-9 -1 -12 -1q-35 0 -94.5 -42
t-59.5 -66q0 -3 3 -9q1 -6 1 -9q0 -9 -9 -25q-7 -11 -7 -49q0 -74 23 -108q2 -2 9 -15q11 -19 17 -26q5 -5 27 -14l6 -3q3 -1 10 -5q14 -7 26 -9q9 -2 25 -2q7 0 25 1h15h1q18 0 18 -27v-13v-6v-2q0 -7 1 -25q2 -22 2 -34v-1q0 -9 -1 -26q-2 -14 -2 -23q0 -5 1 -15v-14v-4
q-1 -57 -1 -94v-43v-11q0 -33 -6 -55q-4 -15 -12 -26q-7 -10 -27 -12q-13 -1 -13 -19v-4v-2q0 -9 14 -9q7 0 17 1q19 3 23 3h36z" />
    <glyph glyph-name="periodcentered" unicode="&#xb7;" horiz-adv-x="245" 
d="M122 217q18 0 28 24q0 1 1 4q5 14 17 21q5 3 14 13q7 8 13 11q20 12 20 30q0 10 -16 20q-5 4 -12 7q-8 4 -16 11q-10 9 -14 21q-1 2 -1 3q-12 29 -27 29t-38 -30q-3 -5 -8 -16q-2 -8 -6 -11q-5 -3 -12 -9q-9 -7 -23 -12q-12 -3 -12 -18q0 -6 11 -14q4 -3 7 -6
q20 -19 31 -27q17 -13 22 -35q4 -16 21 -16z" />
    <glyph glyph-name="cedilla" unicode="&#xb8;" 
d="M262 5q-5 -2 -18 -21q-2 -2 -10 -16q-6 -11 -8 -13q-3 -5 -10 -15q-10 -15 -18 -22q-6 -5 -6 -24q0 -7 13 -9q3 -1 9 -2q8 -1 12 -2q8 -3 21 -8q15 -6 15 -21q0 -9 -7 -17q-4 -4 -12 -8q-14 -7 -29 -16q-6 -4 -10 -5q-23 -9 -23 -15q0 -3 9 -16q6 -7 9 -12l9 -9
q5 -5 57 23q4 2 12 9q9 8 14 10q11 5 17 9q7 6 20 21q7 9 12 13q10 10 10 32q0 25 -11 34q-2 1 -8 7q-9 9 -16 13q-15 9 -27 13h-1q-9 3 -9 6q1 3 8 11q1 2 2 2q3 4 18 26q5 8 7 9q6 8 6 12q0 2 -8 1h-2h-5h-15q-1 0 -5 1h-8q-1 0 -3 1q-8 0 -11 -2z" />
    <glyph glyph-name="onesuperior" unicode="&#xb9;" horiz-adv-x="385" 
d="M112 337v0q29 -3 36 -3q3 0 5 -1q12 0 18 2q1 0 6 1l1 1q19 5 39 5q4 0 12 -1h3q3 -1 5 -1q12 -2 25 -2q17 0 41 6q18 3 17 21q-1 10 -31 10h-3q-43 0 -45 37v-1q0 46 -1 51q0 14 -5 27l-1 1q2 4 2 7v1q-1 1 0 4q2 3 2 6q0 4 -2 10v1q0 1 2 9q1 2 1 5t-2 7q0 2 -1 5v1
l1 6v4l-2 4q-1 3 0 4q0 1 1 3v2q1 1 1 5q0 2 -1 5q5 15 5 19q3 21 6 54q1 18 1 19q0 3 -1 6q0 3 -2 7q-3 7 -2 11q0 6 6 15l2 2l14 18v1v1q3 5 3 9q1 11 -15 11h1q-33 3 -42 3q-13 0 -25 -4q-20 -6 -54 -7q-17 -1 -21 -1q-20 -2 -38 -10q-9 -5 -9 -19q1 -10 16 -12h1
q5 -1 13 -1h9h7q39 0 45 -31q1 -5 1 -9v-3v-3l-1 -1v-3q-1 -14 -1 -21q-2 -17 -2 -22q0 -16 2 -38v-3v-2v-4q0 -2 1 -5v-1q0 -1 -1 -7v-2v-1v-5v-7q1 -3 1 -5q0 -6 -1 -9v-1v-5v-2v-1v-2q1 -39 -4 -81q-4 -33 -21 -46q-8 -5 -27 -10q-10 -2 -12 -3q-8 -4 -7 -20q0 -9 25 -11
h1h2z" />
    <glyph glyph-name="ordmasculine" unicode="&#xba;" horiz-adv-x="497" 
d="M375 659q-4 4 -20 9q-8 3 -12 5q-22 15 -37.5 17.5t-84.5 2.5q-44 0 -91 -35q-5 -4 -8 -7q-22 -14 -34 -36q-4 -6 -12 -20q-13 -19 -16 -31q-7 -26 -7 -70q0 -46 26 -71q7 -6 25 -24q34 -34 69 -49t68 -15q61 0 121 32q33 17 54 53q4 7 6 10q21 30 21 82q0 19 -4 39
q-7 40 -22 55q-8 9 -19 27q-12 18 -23 26zM334 450q-12 -29 -27 -48q-18 -25 -43 -25q-29 0 -49 12q-6 4 -15 12q-7 7 -13 11q-8 5 -20 29q-5 10 -8 14q-8 11 -7 34q0 6 -1 10q0 21 2 32q3 19 6 26q4 11 5 22q2 11 7 21q3 5 12 15q3 4 4 6q20 22 61 22q24 0 45 -5
q11 -2 27 -40l2 -4q19 -41 21 -72q1 -17 -5 -43q-1 -2 -1 -11q-1 -14 -3 -18z" />
    <glyph glyph-name="guillemotright" unicode="&#xbb;" horiz-adv-x="442" 
d="M204 386q0 -4 27 -38q3 -3 12 -17q25 -38 54 -75q1 -2 6 -7q8 -10 8 -14q-1 -7 -10 -16q-5 -4 -8 -8q-13 -15 -29 -42q-3 -6 -15 -19q-9 -11 -12 -18q-4 -7 -16 -19q-2 -3 -3 -4q-12 -14 -14 -24q0 -3 12 -10q6 -4 8 -6q1 -1 3 -5q4 -5 8 -5q5 1 19 16t27 25q20 14 31 32
q8 13 20 19q3 2 5 3q12 8 30 25q6 6 10 9q1 1 6 7q9 9 15 13q5 4 12 13q4 4 4 18q0 7 -7 13q-6 5 -15 12q-13 11 -23 23q-29 36 -47 44q-16 7 -24 18q-5 8 -11 14q-14 15 -35 34q-13 12 -16 13q-2 1 -9 -5l-2 -1q-3 -2 -3 -4t-5 -3q-12 -5 -13 -11zM24 386q-1 -6 20 -33
q8 -10 24 -33q1 -2 9 -8q6 -5 8 -8q4 -5 10 -17q11 -17 21 -31q11 -13 10 -22q-3 -12 -15 -29q-4 -6 -12 -14q-10 -12 -15 -21q-4 -7 -29 -41q-13 -18 -15 -22q-3 -4 -9 -11q-6 -6 -7 -11q-1 -7 11 -15q13 -8 22 -7q5 1 17 13q14 15 27 24q8 6 32 31q21 23 37 33q10 6 16 15
q4 5 9 10q1 1 6 5q9 10 17 14q5 3 13 12q2 3 2 16v2q0 15 -6 19q-13 9 -23 19l-13 13q-3 2 -18 16q-31 29 -43 38q-10 7 -38 34q-14 13 -20 18q-3 4 -8 9q-5 6 -8 6q-5 1 -12 -7q-2 -2 -4 -3q-1 -1 -5 -3q-10 -5 -11 -11z" />
    <glyph glyph-name="onequarter" unicode="&#xbc;" horiz-adv-x="825" 
d="M63 338v0q25 -3 32 -3h3q12 0 17 1h1q3 1 5 1q16 5 32 5q4 0 10 -1q3 0 7 -1q11 -1 22 -1q15 0 36 4q16 3 15 18q-1 9 -28 9h-3q-35 0 -37 28v41q-1 12 -5 22q1 4 1 6v1v2q1 3 1 6t-1 8v1q0 1 2 7v4t-1 6q0 2 -1 3v1v2q1 2 1 3v4q-1 1 -2 3v3t1 2v1q1 2 1 5q0 1 -1 4
q4 10 4 15q3 16 5 43q1 13 1 16v5l-2 6q-2 6 -2 8q0 5 5 12l2 2q5 6 11 15h1q3 5 3 8q0 10 -14 10q-27 2 -35 2q-12 0 -23 -3q-17 -5 -45 -6h-19q-17 -2 -33 -9q-8 -3 -8 -15q1 -8 14 -11h1h12h8h5q33 0 38 -25q1 -4 1 -7q0 -2 -1 -4v-2v-2q-1 -13 -1 -17q-2 -14 -2 -18
q0 -13 2 -31v-1v-2v-4q0 -2 1 -3v-2v-4v-1q-1 -1 -1 -2v-1v-3v-6q1 -2 1 -3v-1q0 -5 -1 -7v-1v-2v-5v-1q1 -29 -3 -65q-4 -26 -18 -36q-7 -5 -23 -9q-9 -2 -10 -2q-7 -3 -7 -17q0 -8 23 -9h2zM739 27v0v12q0 3 -1 10v6q0 1 1 7q1 5 1 8q0 7 -4 17l-1 2q-1 3 -3 6q1 1 4 2h1
h1q2 0 16 1q16 1 29 3q20 4 20 25q0 12 -14 12q-8 0 -20 -1q-11 -1 -16 -1q-13 0 -17 5q-3 3 -3 6q0 1 1 3v1q1 5 1 8v8v5v2q1 17 1 21q0 2 -1 9h1v2q5 9 5 14q0 7 -3 18q-1 1 -1 2v1q-5 14 -4 24q0 12 4 22q5 10 5 18q-1 16 -23 20q-9 2 -21 2q-13 0 -23 -4q-9 -4 -16 -14
q-4 -6 -5 -8q-3 -5 -5 -8q-3 -5 -6 -7h-1q-5 0 -7 -1l-1 -1q-3 -3 -5 -4q-5 -3 -10 -10q-8 -11 -16 -27l-3 -3q-1 0 -2 -1t-2 -3v-1q-12 -17 -15 -20q-17 -19 -28 -32q-7 -8 -20 -22l-2 -3q-13 -13 -29 -28q-10 -9 -9 -20q0 -13 23 -13q9 0 22 1q8 0 14 1q19 1 33 1
q7 0 18 -1h1q19 -2 26 -2q10 0 18 2h2q1 1 2 1t3 -1h-1q3 -2 4 -5q0 -5 -2 -8q0 -1 -1 -1q-3 -6 -3 -14q0 -3 1 -8v-2v-5v-2l-1 -3v-1q-1 -3 -1 -6q0 -5 3 -11q1 -1 1 -2v-1q4 -7 4 -14q0 -4 -3 -9q-1 -4 -1 -7q-1 -11 28 -11q26 0 35 3t14 7q5 5 7 28zM652 169q0 -2 1 -5
q2 -7 2 -11v-3q0 -4 -3 -6q-4 -4 -12 -4h-1q-7 0 -16 -1q-15 -2 -25 -2t-12 2q2 2 3 4q17 21 24 26q3 3 3 8q0 1 2 3l5 5q6 4 8 6q3 4 4 9q2 5 5 8t5 6q8 10 16 18v-1q1 -2 -3 -8v-1q-5 -10 -4 -17v-5q0 -2 1 -2q0 -1 -1 -2q-2 -8 -2 -9v-2v-6q-1 -3 -1 -6q0 -1 1 -3v-1z
M196 -21q5 0 14 1h7q14 0 23 17q1 3 2 5q11 15 33 49q7 11 11 18q5 8 19 29q15 22 18 28q7 12 24 44q32 61 49 86q4 6 14 19q24 35 34 54q8 15 32 48q25 36 33 57q6 16 28 38q13 13 21 26q3 6 17 28q9 12 11 17q8 13 25 38q6 9 9 14q20 30 20 43q0 5 -2 13q-3 9 -15 9h-10
h-8q-17 -1 -32 -23q-6 -9 -12 -16q-5 -8 -14 -22q-5 -10 -9 -16q-1 -1 -2 -3q-9 -12 -16 -23q-6 -8 -13 -21q-4 -9 -8 -15q-14 -24 -47 -73q-11 -17 -19 -28q-3 -5 -13 -23q-8 -15 -11 -19q-2 -5 -12 -17q-8 -11 -10 -15q-14 -22 -39 -53q-4 -6 -7 -9q-18 -23 -34 -58
q-3 -7 -5 -11q-9 -16 -31 -47q-3 -4 -5 -7q-7 -10 -22 -37q-5 -9 -8 -14q-5 -7 -14 -23q-14 -24 -22 -35q-28 -36 -28 -53q0 -20 24 -20z" />
    <glyph glyph-name="onehalf" unicode="&#xbd;" horiz-adv-x="825" 
d="M65 338v0q25 -3 32 -3h3q12 0 17 1h1q3 1 5 1q16 5 32 5q4 0 10 -1q3 0 7 -1q11 -1 22 -1q15 0 36 4q16 3 15 18q-1 9 -28 9h-3q-35 0 -37 28v41q-1 12 -5 22q1 4 1 6v1v2q1 3 1 6t-1 8v1q0 1 2 7v4t-1 6q0 2 -1 3v1v2q1 2 1 3v4q-1 1 -2 3v3t1 2v1q1 2 1 5q0 1 -1 4
q4 10 4 15q3 16 5 43q1 13 1 16v5l-2 6q-2 6 -2 8q0 5 5 12l2 2q5 6 11 15h1q3 5 3 8q0 10 -14 10q-27 2 -35 2q-12 0 -23 -3q-17 -5 -45 -6h-19q-17 -2 -33 -9q-8 -3 -8 -15q1 -8 14 -11h1h12h8h5q33 0 38 -25q1 -4 1 -7q0 -2 -1 -4v-2v-2q-1 -13 -1 -17q-2 -14 -2 -18
q0 -13 2 -31v-1v-2v-4q0 -2 1 -3v-2v-4v-1q-1 -1 -1 -2v-1v-3v-6q1 -2 1 -3v-1q0 -5 -1 -7v-1v-2v-5v-1q1 -29 -3 -65q-4 -26 -18 -36q-7 -5 -23 -9q-9 -2 -10 -2q-7 -3 -7 -17q0 -8 23 -9h2zM704 35h1q-38 -3 -71 -6h-3h-6l-3 1h-9h-3q-10 0 -12 2q1 4 1 5v2q3 3 4 5
q1 3 4 6q43 38 66 66q6 7 15 17q4 5 9 8t7 5q9 11 22 36q1 2 3 4q0 2 1 3q0 1 1 2q0 1 1 1q12 25 17 32l6 6q7 7 7 14q0 6 -1 14v1q-1 7 -6 19l-4 12l-1 6q-2 10 -12 12l-1 1q-16 3 -32 11l-10 5q-6 2 -16 3q-12 0 -27 -2h1q-64 -5 -75 -6q-10 -1 -17 -5q-19 -11 -39 -23v-1
q-3 -1 -5 -2q-11 -7 -15 -12q-6 -6 -6 -16q1 -8 9 -15q0 -1 2 -2q2 -2 5 -4l1 -1q3 -2 7 -1q1 0 1 -1h1q6 -1 9 -1q10 0 15 6h1q1 2 2 3q9 12 19 20q14 11 34 16h3l1 1q13 3 18 3q3 0 12 -1h2q2 -1 4 -1h1q9 -1 17 -5q4 -3 6 -11q0 -3 2 -7q1 -3 4 -6v-1l1 -1v-3t-1 -4
q-3 -10 -7 -18q-1 -3 -4 -7q-5 -7 -7 -12v-1q-2 -5 -3 -6l-4 -8q-3 -4 -3 -5q-2 -2 -2 -9q-1 -4 -2 -6q-2 -3 -7 -10q-4 -5 -7 -8q-2 -5 -3 -9q0 -1 -1 -2q-2 -3 -7 -9q-8 -9 -10 -14l-1 -1q-2 -8 -18 -22l-10 -8q-2 -1 -4 -4t-3 -4q-14 -14 -21 -22q-17 -18 -22 -22
q-6 -6 -9 -10q-1 0 -1 -1l-1 -1q-1 -1 -2 -1l-3 -3h-1q-2 -3 -10 -12q-4 -4 -3 -10q0 -8 25 -8h18q6 1 10 1h2q3 0 5 1h2h6h1l38 -2h1h17q20 0 29 -1q36 -5 58 -5q24 0 50 5q29 6 32 23v5q1 22 5 32v-1l3 6q4 5 4 9q0 11 -22 12q-36 0 -44 -15q0 -1 -1 -4q-1 -1 -1 -2
q-9 -18 -30 -21zM173 -21q5 0 14 1h7q14 0 23 17q1 3 2 5q11 15 33 49q7 11 11 18q5 8 19 29q15 22 18 28q7 12 24 44q32 61 49 86q4 6 13 19q25 35 35 54q8 15 32 48q25 36 33 57q6 16 28 38q13 13 21 26q3 6 17 28q8 12 11 17q8 13 25 38q6 9 9 14q20 30 20 43q0 5 -2 13
q-3 9 -15 9h-10h-8q-17 -1 -32 -23q-6 -9 -12 -16q-6 -8 -14 -22q-5 -10 -9 -16l-3 -3q-8 -12 -15 -23q-6 -8 -13 -21q-4 -9 -8 -15q-15 -24 -47 -73q-11 -17 -19 -28q-3 -5 -13 -23q-8 -15 -11 -19q-3 -5 -12 -17q-8 -11 -11 -15q-13 -22 -38 -53q-4 -6 -7 -9
q-18 -23 -34 -58q-3 -7 -5 -11q-9 -16 -31 -47q-3 -4 -5 -7q-7 -10 -22 -37q-5 -9 -8 -14q-5 -7 -14 -23q-14 -24 -22 -35q-28 -36 -28 -53q0 -20 24 -20z" />
    <glyph glyph-name="threequarters" unicode="&#xbe;" horiz-adv-x="825" 
d="M242 409l8 15q1 1 1 5q0 1 1 2q3 8 3 21v2v1q0 1 2 5q1 4 1 8q1 25 -31 44h-1q-9 5 -25 11q-3 1 -14 6l-6 2q3 3 5 4h1q10 8 44 36q6 6 10 18q0 2 1 3v2q3 10 3 23q0 5 -2 9q-1 2 -2 3v1v1q-6 21 -24 28q-47 19 -96 19q-26 -1 -44 -8h-1q-5 -2 -48 -17q-13 -5 -12 -17
q1 -14 20 -14q15 0 38 5q6 2 15 4q19 6 27 6q20 0 34 -14q6 -6 6 -10q1 -6 2 -8q1 -3 1 -5q0 -7 -3 -16q-6 -15 -19 -26q-12 -9 -29 -14h1q-16 -4 -25 -6q-6 -1 -15 -3l-2 -1q-19 -4 -18 -16q0 -9 13 -15h1q11 -3 33 -3h6q35 0 59 -19q11 -8 13 -18v-1q0 -1 1 -3l1 -1v-1
q0 -3 2 -5q0 -2 1 -10v-3v-4v-2q-1 -4 -7 -10q-2 -2 -3 -4v-1q-2 0 -3 -2q0 -1 -1 -3q-2 -4 -4 -6q-6 -11 -20 -15h1q-8 -1 -21 -5q-12 -4 -21 -6q-13 -3 -20 -3q-2 0 -11 2q-7 1 -11 1q-11 0 -12 -1h-1h-2q-5 2 -13 2q-17 -1 -18 -13q0 -14 10 -21q22 -14 49 -14q13 0 24 2
q23 6 52 13q12 3 25 10q23 11 31 16q10 6 22 16q3 3 7 8q3 4 5 6l2 2t2 1zM748 27v0v12q0 3 -1 10v6q0 1 1 7q1 5 1 8q0 7 -4 17q0 2 -1 2q-1 3 -3 6q1 1 4 2h1h1q2 0 16 1q16 1 29 3q20 4 20 25q0 12 -13 12q-8 0 -20 -1t-17 -1q-12 0 -17 5q-2 3 -2 6v3v1q2 5 2 8
q0 5 -1 8v5v2q1 17 1 21q0 2 -1 9h1v2q5 9 5 14q0 7 -3 18q0 1 -1 2v1q-4 14 -4 24q0 12 4 22q5 10 5 18q-1 16 -23 20q-9 2 -21 2q-13 0 -22 -4q-10 -4 -17 -14q-4 -6 -5 -8q-3 -5 -5 -8q-3 -5 -6 -7h-1q-5 0 -7 -1l-1 -1q-3 -3 -5 -4q-5 -3 -10 -10q-8 -11 -16 -27
q-1 -2 -3 -3q-1 0 -2 -1t-2 -3v-1q-12 -17 -15 -20q-17 -19 -28 -32q-7 -9 -19 -22l-3 -3q-13 -13 -29 -28q-10 -9 -9 -20q0 -13 24 -13q8 0 21 1q8 0 14 1q20 1 33 1q7 0 18 -1h1q19 -2 26 -2q10 0 18 2h2q1 1 2 1t3 -1h-1q4 -2 4 -5q0 -5 -2 -8v-1q-4 -6 -4 -14q0 -3 1 -8
v-2v-5v-2l-1 -3v-1q-1 -3 -1 -6q0 -5 3 -11q1 -1 1 -2v-1q4 -7 4 -14q0 -4 -3 -9q-1 -4 -1 -7q0 -11 28 -11q26 0 35 3t14 7q5 5 7 28zM661 169q0 -2 1 -5q2 -7 2 -11v-3q0 -4 -3 -6q-4 -4 -12 -4h-1q-6 0 -16 -1q-15 -2 -25 -2t-11 2l2 4q17 21 24 26q3 3 3 8q0 1 2 3l5 5
q6 4 8 6q3 4 5 9t4 8q3 3 5 6q8 10 16 18v-1h1q0 -2 -3 -8q-1 0 -1 -1q-5 -10 -4 -17v-5q0 -2 1 -2v-2q-3 -8 -3 -9v-2v-6v-6v-3v-1zM195 -21q6 0 14 1h8q13 0 22 17q2 3 3 5q11 15 32 49q8 11 12 18q5 8 19 29q15 22 18 28q7 12 23 44q32 61 50 86q4 6 13 19q25 35 35 54
q8 15 31 48q25 36 33 57q6 16 28 38q14 13 21 26q4 6 18 28q8 12 11 17q7 13 25 38q5 9 9 14q20 30 20 43q0 5 -3 13q-2 9 -14 9h-10h-8q-17 -1 -32 -23q-7 -9 -12 -16q-6 -8 -14 -22q-5 -10 -10 -16q0 -1 -2 -3q-8 -12 -16 -23q-6 -8 -12 -21q-5 -9 -8 -15q-15 -24 -47 -73
q-11 -17 -19 -28q-3 -5 -13 -23q-8 -15 -11 -19q-3 -5 -12 -17q-8 -11 -11 -15q-14 -22 -38 -53q-5 -6 -7 -9q-18 -23 -35 -58q-3 -7 -5 -11q-9 -16 -30 -47q-3 -4 -6 -7q-6 -10 -22 -37q-5 -9 -8 -14q-4 -7 -14 -23q-13 -24 -21 -35q-28 -36 -28 -53q0 -20 23 -20z" />
    <glyph glyph-name="questiondown" unicode="&#xbf;" horiz-adv-x="398" 
d="M93 -93q9 -17 22 -30q3 -2 9 -8q12 -10 18 -17q58 -64 109 -65q35 0 46 7q30 18 30 42q0 61 -26 55q-10 -2 -28 -8q-27 -8 -52 -3q-28 6 -40 21q-19 21 -20 35q-1 13 -9 27q-5 8 -7 15q-8 27 3 41q14 18 43 24q62 15 88 49q27 32 25 61q0 11 -3 38q-3 17 -3 26
q-1 36 -25 36q-12 0 -31 -6q-5 -1 -7 -2q-16 -4 -19 -9t-4 -28q0 -19 -1 -25q-4 -22 -27 -22q-20 -1 -58 -18l-4 -2q-38 -17 -50 -75q-1 -8 -5 -23q-4 -19 -5 -35q-2 -25 4 -44q6 -21 20 -45q5 -7 7 -12zM274 341q10 27 40 45q25 14 25 22q0 17 -38 32q-15 6 -27 28
q-4 7 -7 11q-14 16 -24 16t-20 -19q-3 -6 -9 -14q-4 -6 -6 -10t-9 -8l-4 -4l-3 -3q-7 -8 -15 -11q-19 -9 -19 -22q0 -9 26 -22q24 -12 38 -37q15 -30 24 -30q18 0 28 26z" />
    <glyph glyph-name="Agrave" unicode="&#xc0;" horiz-adv-x="761" 
d="M303 199q5 -5 17 -18q12 -12 26 -12q17 0 27 15q8 13 17 19q1 1 3 2q15 10 47 10q22 0 29 -35q1 -5 10 -30q24 -66 24 -83q0 -9 -28 -15q-2 -1 -3 -1q-2 0 -7 -1q-27 -6 -27 -26q0 -21 28 -21q7 0 41 1q41 2 61 2q21 0 58 -6q20 -3 28 -3l17 -1q44 -2 68 1q13 2 13 18
q0 26 -30 33q-7 2 -26 6q-28 5 -38 14q-18 15 -28 59q-4 16 -26 69q-13 34 -19 51q-4 11 -19 41q-13 25 -17 37q-4 9 -12 37q-7 24 -11 35q-1 5 -9 14q-10 14 -14 24q-5 13 -12 35q-8 29 -18 54q-9 21 -25 75q-4 13 -5 16q-1 2 -4 9q-13 26 -17 39q-3 10 -3 13v7q0 8 -11 13
q-9 3 -20 3q-17 0 -27 -10q-1 -1 -5 -6q-5 -6 -8 -9t-12 -10q-11 -9 -16 -20q-3 -8 -7 -38q-2 -17 -4 -23q-1 -4 -8 -17q-4 -5 -5 -8q-17 -41 -23 -54q-11 -26 -37 -87q-16 -38 -25 -59q-2 -5 -5 -22q-2 -13 -4 -18q-5 -12 -14 -21q-3 -3 -6 -10q-1 -1 -1 -2
q-15 -36 -35 -97q-10 -29 -14 -37q-3 -7 -9 -19q-3 -6 -9 -22q-17 -43 -59 -52q-38 -8 -38 -28q0 -13 18 -24q4 -2 28 -1h29q9 0 26 -5q14 -5 23 -5q80 0 92 12q5 5 5 16q0 22 -35 26q-5 1 -8 1q-27 5 -17 32q4 11 8 25l3 9q3 9 11 29q9 23 13 34q1 2 4 12q9 29 27 29
q38 0 59 -21zM276 275q-22 0 -22 12q0 4 4 9q5 6 9 16q3 9 7 26q2 13 6 21q2 5 8 18q14 31 20 49q6 16 14 40q6 20 12 36q0 1 1 3q3 10 11 10t14 -13q11 -21 20 -43q6 -14 10 -42q2 -13 3 -19t6 -12q7 -8 11 -21q1 -3 2 -13q4 -28 9 -45q2 -6 10 -19q6 -9 6 -13q0 -8 -23 -8
q-11 0 -26 16q-7 8 -12 13q-10 9 -28 9q-8 0 -26 -14q-22 -16 -46 -16zM317 914q-5 0 -12 -5q-3 -3 -6 -4q-1 -1 -4 -3q-7 -4 -10 -7l-5 -5l-3 -3q-3 -3 -9 -12q-3 -3 -4 -5l-7 -7q-4 -4 -6 -7q-9 -12 2 -19q4 -2 15 -9q20 -14 35 -20q5 -2 9 -3q2 -1 3 -2q1 0 4 -2
q1 -2 2 -3q3 -1 17 -8q11 -6 14 -7q18 -10 34 -21q5 -3 9 -6q11 -7 17 -7q4 0 13 7q6 5 11 7q2 1 8 7l3 3q1 1 3 2t2 2q1 0 1 1q1 1 1 3t-9 11q-4 3 -13 14q-3 4 -11 14q-10 13 -21 25q-22 31 -52 54q-17 15 -22 15h-9z" />
    <glyph glyph-name="Aacute" unicode="&#xc1;" horiz-adv-x="761" 
d="M303 199q5 -5 17 -18q12 -12 26 -12q17 0 27 15q8 13 17 19q1 1 3 2q15 10 47 10q22 0 29 -35q1 -5 10 -30q24 -66 24 -83q0 -9 -28 -15q-2 -1 -3 -1q-2 0 -7 -1q-27 -6 -27 -26q0 -21 28 -21q7 0 41 1q41 2 61 2q21 0 58 -6q20 -3 28 -3l17 -1q44 -2 68 1q13 2 13 18
q0 26 -30 33q-7 2 -26 6q-28 5 -38 14q-18 15 -28 59q-4 16 -26 69q-13 34 -19 51q-4 11 -19 41q-13 25 -17 37q-4 9 -12 37q-7 24 -11 35q-1 5 -9 14q-10 14 -14 24q-5 13 -12 35q-8 29 -18 54q-9 21 -25 75q-4 13 -5 16q-1 2 -4 9q-13 26 -17 39q-3 10 -3 13v7q0 8 -11 13
q-9 3 -20 3q-17 0 -27 -10q-1 -1 -5 -6q-5 -6 -8 -9t-12 -10q-11 -9 -16 -20q-3 -8 -7 -38q-2 -17 -4 -23q-1 -4 -8 -17q-4 -5 -5 -8q-17 -41 -23 -54q-11 -26 -37 -87q-16 -38 -25 -59q-2 -5 -5 -22q-2 -13 -4 -18q-5 -12 -14 -21q-3 -3 -6 -10q-1 -1 -1 -2
q-15 -36 -35 -97q-10 -29 -14 -37q-3 -7 -9 -19q-3 -6 -9 -22q-17 -43 -59 -52q-38 -8 -38 -28q0 -13 18 -24q4 -2 28 -1h29q9 0 26 -5q14 -5 23 -5q80 0 92 12q5 5 5 16q0 22 -35 26q-5 1 -8 1q-27 5 -17 32q4 11 8 25l3 9q3 9 11 29q9 23 13 34q1 2 4 12q9 29 27 29
q38 0 59 -21zM276 275q-22 0 -22 12q0 4 4 9q5 6 9 16q3 9 7 26q2 13 6 21q2 5 8 18q14 31 20 49q6 16 14 40q6 20 12 36q0 1 1 3q3 10 11 10t14 -13q11 -21 20 -43q6 -14 10 -42q2 -13 3 -19t6 -12q7 -8 11 -21q1 -3 2 -13q4 -28 9 -45q2 -6 10 -19q6 -9 6 -13q0 -8 -23 -8
q-11 0 -26 16q-7 8 -12 13q-10 9 -28 9q-8 0 -26 -14q-22 -16 -46 -16zM417 896q-7 -5 -22 -22q-13 -15 -22 -23q-3 -3 -11 -10q-17 -13 -24 -21q-10 -11 -15 -17l-7 -7q-4 -5 -4 -7q-1 -3 3 -8q1 -2 2 -3q1 -2 4 -7l6 -9q7 -9 10 -10q1 0 5 1q2 1 7 4q5 2 8 4q1 0 3 1t3 2
h2l4 2q1 2 24 11q3 1 5 1q5 2 17 8q3 2 6 3q7 3 22 9q20 7 35 16q14 8 39 20q5 3 8 4q9 4 3 12q-4 4 -13 15q-4 7 -8 11q-14 16 -28 24q-12 7 -23 7q-24 0 -39 -11z" />
    <glyph glyph-name="Acircumflex" unicode="&#xc2;" horiz-adv-x="761" 
d="M303 199q5 -5 17 -18q12 -12 26 -12q17 0 27 15q8 13 17 19q1 1 3 2q15 10 47 10q22 0 29 -35q1 -5 10 -30q24 -66 24 -83q0 -9 -28 -15q-2 -1 -3 -1q-2 0 -7 -1q-27 -6 -27 -26q0 -21 28 -21q7 0 41 1q41 2 61 2q21 0 58 -6q20 -3 28 -3l17 -1q44 -2 68 1q13 2 13 18
q0 26 -30 33q-7 2 -26 6q-28 5 -38 14q-18 15 -28 59q-4 16 -26 69q-13 34 -19 51q-4 11 -19 41q-13 25 -17 37q-4 9 -12 37q-7 24 -11 35q-1 5 -9 14q-10 14 -14 24q-5 13 -12 35q-8 29 -18 54q-9 21 -25 75q-4 13 -5 16q-1 2 -4 9q-13 26 -17 39q-3 10 -3 13v7q0 8 -11 13
q-9 3 -20 3q-17 0 -27 -10q-1 -1 -5 -6q-5 -6 -8 -9t-12 -10q-11 -9 -16 -20q-3 -8 -7 -38q-2 -17 -4 -23q-1 -4 -8 -17q-4 -5 -5 -8q-17 -41 -23 -54q-11 -26 -37 -87q-16 -38 -25 -59q-2 -5 -5 -22q-2 -13 -4 -18q-5 -12 -14 -21q-3 -3 -6 -10q-1 -1 -1 -2
q-15 -36 -35 -97q-10 -29 -14 -37q-3 -7 -9 -19q-3 -6 -9 -22q-17 -43 -59 -52q-38 -8 -38 -28q0 -13 18 -24q4 -2 28 -1h29q9 0 26 -5q14 -5 23 -5q80 0 92 12q5 5 5 16q0 22 -35 26q-5 1 -8 1q-27 5 -17 32q4 11 8 25l3 9q3 9 11 29q9 23 13 34q1 2 4 12q9 29 27 29
q38 0 59 -21zM276 275q-22 0 -22 12q0 4 4 9q5 6 9 16q3 9 7 26q2 13 6 21q2 5 8 18q14 31 20 49q6 16 14 40q6 20 12 36q0 1 1 3q3 10 11 10t14 -13q11 -21 20 -43q6 -14 10 -42q2 -13 3 -19t6 -12q7 -8 11 -21q1 -3 2 -13q4 -28 9 -45q2 -6 10 -19q6 -9 6 -13q0 -8 -23 -8
q-11 0 -26 16q-7 8 -12 13q-10 9 -28 9q-8 0 -26 -14q-22 -16 -46 -16zM479 753q1 0 5 2q5 3 10 5q6 3 18 11q5 4 8 6q11 7 11 11t-4 8q-11 11 -27 22q-14 9 -22 17q-10 10 -18 20t-21 22q-2 1 -8 6q-8 6 -10 8q-10 10 -18 10q-16 0 -50 -23q-2 -1 -5 -4q-5 -4 -10 -9
q-1 0 -8 -4q-5 -4 -6 -4q-2 -2 -9 -8q-8 -8 -14 -11q-8 -5 -15 -12q-3 -2 -5 -4q-28 -23 -40 -33l-1 -1q-1 0 -1 -1q-1 -1 -1 -3v-1q0 -5 5 -7l2 -1q1 0 1 -1q28 -11 46 -11q5 0 24 11q7 4 12 7q4 2 11 7q4 4 7 5q3 2 10 6q9 6 14 9q2 1 7 5q4 2 5 3t3 2q2 2 3 2q2 0 7 -5
l2 -2q7 -7 30 -26l12 -9q7 -6 19 -13q7 -3 11 -6q8 -6 10 -6z" />
    <glyph glyph-name="Atilde" unicode="&#xc3;" horiz-adv-x="761" 
d="M303 199q5 -5 17 -18q12 -12 26 -12q17 0 27 15q8 13 17 19q1 1 3 2q15 10 47 10q22 0 29 -35q1 -5 10 -30q24 -66 24 -83q0 -9 -28 -15q-2 -1 -3 -1q-2 0 -7 -1q-27 -6 -27 -26q0 -21 28 -21q7 0 41 1q41 2 61 2q21 0 58 -6q20 -3 28 -3l17 -1q44 -2 68 1q13 2 13 18
q0 26 -30 33q-7 2 -26 6q-28 5 -38 14q-18 15 -28 59q-4 16 -26 69q-13 34 -19 51q-4 11 -19 41q-13 25 -17 37q-4 9 -12 37q-7 24 -11 35q-1 5 -9 14q-10 14 -14 24q-5 13 -12 35q-8 29 -18 54q-9 21 -25 75q-4 13 -5 16q-1 2 -4 9q-13 26 -17 39q-3 10 -3 13v7q0 8 -11 13
q-9 3 -20 3q-17 0 -27 -10q-1 -1 -5 -6q-5 -6 -8 -9t-12 -10q-11 -9 -16 -20q-3 -8 -7 -38q-2 -17 -4 -23q-1 -4 -8 -17q-4 -5 -5 -8q-17 -41 -23 -54q-11 -26 -37 -87q-16 -38 -25 -59q-2 -5 -5 -22q-2 -13 -4 -18q-5 -12 -14 -21q-3 -3 -6 -10q-1 -1 -1 -2
q-15 -36 -35 -97q-10 -29 -14 -37q-3 -7 -9 -19q-3 -6 -9 -22q-17 -43 -59 -52q-38 -8 -38 -28q0 -13 18 -24q4 -2 28 -1h29q9 0 26 -5q14 -5 23 -5q80 0 92 12q5 5 5 16q0 22 -35 26q-5 1 -8 1q-27 5 -17 32q4 11 8 25l3 9q3 9 11 29q9 23 13 34q1 2 4 12q9 29 27 29
q38 0 59 -21zM276 275q-22 0 -22 12q0 4 4 9q5 6 9 16q3 9 7 26q2 13 6 21q2 5 8 18q14 31 20 49q6 16 14 40q6 20 12 36q0 1 1 3q3 10 11 10t14 -13q11 -21 20 -43q6 -14 10 -42q2 -13 3 -19t6 -12q7 -8 11 -21q1 -3 2 -13q4 -28 9 -45q2 -6 10 -19q6 -9 6 -13q0 -8 -23 -8
q-11 0 -26 16q-7 8 -12 13q-10 9 -28 9q-8 0 -26 -14q-22 -16 -46 -16zM296 760q5 5 7 12l4 8q13 20 25 20q11 0 21 -3q4 -2 7 -2q6 -2 19 -4q7 -1 11 -2q3 -1 12 -3q15 -4 23 -4q11 0 26 10q11 6 30 27q2 3 8 8q5 3 7 6q5 6 13 19q6 8 8 11q7 9 0 14q-4 4 -11 12q-2 3 -4 5
q-9 8 -15 3q-3 -2 -9 -10q-3 -4 -6 -6q-24 -22 -38 -22q-23 0 -43 5q-7 2 -20 5q-25 6 -31 6q-14 0 -29 -7q-9 -4 -16 -13q-5 -6 -14 -16q-3 -4 -7 -14q-2 -5 -3 -7q-2 -4 -7 -12q-10 -18 -18 -42q-1 -2 -1 -5q0 -4 10 -4q3 0 11 -1h6q19 0 24 6z" />
    <glyph glyph-name="Adieresis" unicode="&#xc4;" horiz-adv-x="761" 
d="M303 199q5 -5 17 -18q12 -12 26 -12q17 0 27 15q8 13 17 19q1 1 3 2q15 10 47 10q22 0 29 -35q1 -5 10 -30q24 -66 24 -83q0 -9 -28 -15q-2 -1 -3 -1q-2 0 -7 -1q-27 -6 -27 -26q0 -21 28 -21q7 0 41 1q41 2 61 2q21 0 58 -6q20 -3 28 -3l17 -1q44 -2 68 1q13 2 13 18
q0 26 -30 33q-7 2 -26 6q-28 5 -38 14q-18 15 -28 59q-4 16 -26 69q-13 34 -19 51q-4 11 -19 41q-13 25 -17 37q-4 9 -12 37q-7 24 -11 35q-1 5 -9 14q-10 14 -14 24q-5 13 -12 35q-8 29 -18 54q-9 21 -25 75q-4 13 -5 16q-1 2 -4 9q-13 26 -17 39q-3 10 -3 13v7q0 8 -11 13
q-9 3 -20 3q-17 0 -27 -10q-1 -1 -5 -6q-5 -6 -8 -9t-12 -10q-11 -9 -16 -20q-3 -8 -7 -38q-2 -17 -4 -23q-1 -4 -8 -17q-4 -5 -5 -8q-17 -41 -23 -54q-11 -26 -37 -87q-16 -38 -25 -59q-2 -5 -5 -22q-2 -13 -4 -18q-5 -12 -14 -21q-3 -3 -6 -10q-1 -1 -1 -2
q-15 -36 -35 -97q-10 -29 -14 -37q-3 -7 -9 -19q-3 -6 -9 -22q-17 -43 -59 -52q-38 -8 -38 -28q0 -13 18 -24q4 -2 28 -1h29q9 0 26 -5q14 -5 23 -5q80 0 92 12q5 5 5 16q0 22 -35 26q-5 1 -8 1q-27 5 -17 32q4 11 8 25l3 9q3 9 11 29q9 23 13 34q1 2 4 12q9 29 27 29
q38 0 59 -21zM276 275q-22 0 -22 12q0 4 4 9q5 6 9 16q3 9 7 26q2 13 6 21q2 5 8 18q14 31 20 49q6 16 14 40q6 20 12 36q0 1 1 3q3 10 11 10t14 -13q11 -21 20 -43q6 -14 10 -42q2 -13 3 -19t6 -12q7 -8 11 -21q1 -3 2 -13q4 -28 9 -45q2 -6 10 -19q6 -9 6 -13q0 -8 -23 -8
q-11 0 -26 16q-7 8 -12 13q-10 9 -28 9q-8 0 -26 -14q-22 -16 -46 -16zM345 790q11 13 11 34q0 25 -28 38q-14 7 -43 6h-5q-20 0 -29 -6q-3 -3 -10 -7q-18 -13 -18 -28q0 -17 13 -37q6 -12 22 -17q4 -1 14 -4q14 -5 24 -5q27 0 49 26zM476 872q-10 0 -27 -4q-5 -1 -8 -2
q-10 -1 -17 -12q-11 -16 -11 -31q0 -14 12 -25q28 -29 57 -29q23 0 42 14q22 17 22 48q1 15 -13 25q-2 1 -11 4q-3 1 -4 1t-5 4q-4 3 -7 4q-15 3 -30 3z" />
    <glyph glyph-name="Aring" unicode="&#xc5;" horiz-adv-x="761" 
d="M303 199q5 -5 17 -18q12 -12 26 -12q17 0 27 15q8 13 17 19q1 1 3 2q15 10 47 10q22 0 29 -35q1 -5 10 -30q24 -66 24 -83q0 -9 -28 -15q-2 -1 -3 -1q-2 0 -7 -1q-27 -6 -27 -26q0 -21 28 -21q7 0 41 1q41 2 61 2q21 0 58 -6q20 -3 28 -3l17 -1q44 -2 68 1q13 2 13 18
q0 26 -30 33q-7 2 -26 6q-28 5 -38 14q-18 15 -28 59q-4 16 -26 69q-13 34 -19 51q-4 11 -19 41q-13 25 -17 37q-4 9 -12 37q-7 24 -11 35q-1 5 -9 14q-10 14 -14 24q-5 13 -12 35q-8 29 -18 54q-9 21 -25 75q-4 13 -5 16q-1 2 -4 9q-13 26 -17 39q-3 10 -3 13v7q0 8 -11 13
q-9 3 -20 3q-17 0 -27 -10q-1 -1 -5 -6q-5 -6 -8 -9t-12 -10q-11 -9 -16 -20q-3 -8 -7 -38q-2 -17 -4 -23q-1 -4 -8 -17q-4 -5 -5 -8q-17 -41 -23 -54q-11 -26 -37 -87q-16 -38 -25 -59q-2 -5 -5 -22q-2 -13 -4 -18q-5 -12 -14 -21q-3 -3 -6 -10q-1 -1 -1 -2
q-15 -36 -35 -97q-10 -29 -14 -37q-3 -7 -9 -19q-3 -6 -9 -22q-17 -43 -59 -52q-38 -8 -38 -28q0 -13 18 -24q4 -2 28 -1h29q9 0 26 -5q14 -5 23 -5q80 0 92 12q5 5 5 16q0 22 -35 26q-5 1 -8 1q-27 5 -17 32q4 11 8 25l3 9q3 9 11 29q9 23 13 34q1 2 4 12q9 29 27 29
q38 0 59 -21zM276 275q-22 0 -22 12q0 4 4 9q5 6 9 16q3 9 7 26q2 13 6 21q2 5 8 18q14 31 20 49q6 16 14 40q6 20 12 36q0 1 1 3q3 10 11 10t14 -13q11 -21 20 -43q6 -14 10 -42q2 -13 3 -19t6 -12q7 -8 11 -21q1 -3 2 -13q4 -28 9 -45q2 -6 10 -19q6 -9 6 -13q0 -8 -23 -8
q-11 0 -26 16q-7 8 -12 13q-10 9 -28 9q-8 0 -26 -14q-22 -16 -46 -16zM354 913q-11 -5 -17 -8q-7 -4 -11 -7q-8 -6 -19 -20q-2 -2 -9 -8q-6 -3 -7 -6q-3 -4 -4 -14q-1 -4 -1 -6q-3 -11 -3 -24v-5q0 -9 6 -26q1 -4 2 -6q2 -5 11 -15q5 -6 7 -10q6 -12 26 -21q13 -6 42 -6
q6 0 22 5q9 2 16 4q4 1 10 6q3 2 5 3q21 10 31 19t15 19q10 21 10 45q0 19 -14 49q-7 13 -28 22q-4 2 -12 9q-6 5 -11 7q-14 4 -29 4q-14 0 -38 -10zM383 877q7 0 18 -4q3 0 4 -1q7 -2 16 -12l1 -2q4 -4 5 -6q5 -10 5 -18q0 -2 1 -6v-6q0 -13 -4 -29q-2 -6 -13 -11
q-3 -2 -5 -2q-8 -5 -19 -4q-12 0 -32 10q-11 6 -19 27q-3 6 -3 21v2q0 10 3 13q1 2 5 8q4 9 8 11q16 9 28 9h1z" />
    <glyph glyph-name="AE" unicode="&#xc6;" horiz-adv-x="1018" 
d="M471 623l-8 -8q-12 -10 -15 -18q-1 -3 -18 -24q-10 -12 -12 -16q-14 -32 -52 -79q-20 -24 -43 -59q-20 -30 -37 -51q-11 -14 -23 -39q-9 -16 -17 -30q-3 -4 -11 -17q-26 -39 -35 -51q-25 -29 -50 -71q-4 -6 -5 -9q-4 -5 -12 -19q-14 -22 -21 -29q-4 -5 -12 -13
q-9 -11 -14 -16q-15 -13 -30 -16q-9 -2 -24 -9q-3 -1 -4 -2q-11 -5 -11 -16q0 -24 11 -27q25 -8 64 -6q11 0 58 -2q28 -1 35 -1q55 0 64 9q12 12 12 20q0 15 -12 22q-9 5 -27 5q-9 -1 -13 0q-30 5 -21 30q6 16 19 35q5 7 17 22q6 9 10 14q22 32 46 75q1 1 1 2q4 7 7 8
q6 3 19 1h7q38 0 59 -21l17 -17q12 -13 26 -13q17 0 27 15q8 13 17 19q1 1 4 2q14 10 46 10q15 0 17 -8q1 -2 0 -7q-1 -2 -1 -3q-1 -7 -2 -13q-2 -10 0 -27q1 -9 1 -14q0 -4 -1 -14q-3 -22 0 -30q6 -19 -2 -34q-11 -19 -27 -24q-8 -2 -20 -9q-8 -6 -13 -8q-7 -3 -19 -3
q-9 -1 -16 -4q-13 -6 -13 -24q0 -17 36 -17q22 0 67 2q38 2 59 2q9 0 44 -1q30 -2 39 -2q17 0 58 2t67 2q18 0 61 -3q36 -3 54 -3q58 0 76 54q18 52 18 89q0 23 -28 23q-20 0 -29 -14q-9 -13 -22 -37q-14 -27 -33 -42q-38 -29 -74 -29q-12 0 -43 3q-26 2 -37 2q-38 0 -62 29
q-19 25 -12 65q3 14 1 39q-2 17 -1 26v9q2 37 -5 58q-6 18 7 29q24 20 109 16q21 0 34 -9q17 -12 17 -32q0 -19 4 -26q8 -15 24 -15q17 0 26 5t9 30q0 10 1 30v28q0 9 1 30q2 31 1 52q-3 31 -32 31q-13 0 -21 -11q-14 -17 -28 -31q-26 -27 -67 -27q-7 0 -24 -1h-21
q-27 0 -27 28q-1 25 0 77v39q0 14 -6 29q-8 16 -8 48t31 32q7 0 25 2q15 2 24 2q8 0 29 -3q11 -1 16 -1q32 0 62 -30q4 -4 16 -11q17 -10 21 -23q2 -4 3 -12q5 -22 19 -22q29 0 32 16q7 30 7 48v8q1 26 -7 36q-3 3 -5 11q-1 4 -2 6q-8 20 -30 20h-9q-12 0 -37 1q-48 0 -73 2
q-42 4 -62 4q-37 0 -66 -4q-26 -3 -81 -3q-9 0 -32 1h-37q-10 0 -40 3q-11 1 -14 1q-36 0 -36 -20t10 -26q9 -5 41 -3q13 1 19 0zM526 611q3 0 5 -9q1 -5 5 -18q5 -19 5 -31q0 -5 -3 -16q-4 -14 -4 -29q0 -8 1 -25q1 -25 0 -41q-1 -23 0 -40v-7t1 -11q1 -15 1 -30
q0 -19 -2 -34q-1 -5 -1 -8t-1 -11q0 -10 -1 -12q-2 -3 -16 -4h-4q-8 -1 -25 0h-3q-10 0 -25 16q-7 8 -13 13q-10 9 -28 9q-7 0 -25 -13q-22 -17 -47 -17q-13 0 -18 4q-4 3 -3 6q0 3 3 6q1 2 2 2q10 14 21 26q27 28 56 81q9 18 15 27q14 23 23 39q11 17 31 48q4 8 11 25
q3 9 6 13q5 8 16 20q6 6 7 9q1 1 3 4q3 8 7 8z" />
    <glyph glyph-name="Ccedilla" unicode="&#xc7;" horiz-adv-x="716" 
d="M366 -14l-1 -2q-2 -2 -10 -16q-7 -11 -8 -13q-4 -5 -11 -15q-9 -15 -17 -22q-6 -5 -6 -24q0 -7 12 -9q3 -1 9 -2q8 -1 12 -2q9 -3 22 -8q15 -6 15 -21q0 -9 -8 -17q-3 -4 -12 -8q-14 -7 -29 -16q-6 -4 -10 -5q-22 -9 -22 -15q0 -3 9 -16q5 -7 8 -12l10 -9q5 -5 57 23
q4 2 12 9q9 8 13 10q11 5 17 9q8 6 20 21q8 9 12 13q11 10 11 32q0 25 -11 34q-2 1 -8 7q-10 9 -17 13q-14 9 -26 13h-2q-8 3 -8 6t8 11l1 2q6 7 16 22q3 5 5 8q7 0 18 4q15 5 34 6q6 0 20 5q15 6 23 5q11 -1 35 8q8 4 13 5l22 5l19 4q31 6 35 44q3 25 20 49q13 17 13 31
q0 15 -5 25q-9 20 -22 20q-11 0 -22 -12q-9 -10 -38 -54q-12 -19 -17 -25q-45 -61 -127 -61q-50 0 -121 28q-80 31 -130 139q-4 9 -12 31q-8 23 -15 34q-7 13 -4 42q2 19 -1 29q-18 68 18 122q3 5 8 18q3 8 5 12q37 74 78 105q27 20 91 36q39 9 74 9q57 0 107 -38
q42 -34 57 -86q5 -24 35 -24q24 0 24 31q0 10 -2 30q-1 7 -1 11q0 5 -2 15q-3 28 -3 42q-1 28 -29 31q-13 2 -41 7q-23 4 -36 6q-17 3 -50 11q-47 12 -77 12q-27 0 -94 -8q-21 -3 -33 -4q-22 -3 -33 -9q-15 -7 -40 -24q-15 -11 -26 -17q-101 -59 -130 -135q-24 -64 -31 -107
q-5 -32 -5 -106v-8q0 -12 11 -34l6 -12q10 -26 15 -38q1 -2 4 -9q15 -33 24 -43q44 -50 101 -96q36 -30 74 -35q13 -2 40 -13q4 -1 6 -2q23 -9 54 -13z" />
    <glyph glyph-name="Egrave" unicode="&#xc8;" horiz-adv-x="642" 
d="M581 159q-20 0 -29 -14q-9 -13 -19 -35q-12 -23 -31 -36q-58 -38 -83 -38q-11 0 -41 3q-24 3 -35 3q-38 0 -62 29q-18 24 -12 58q7 33 9 76q1 20 -11 54l-3 9q-6 18 7 29q25 20 109 16q21 0 34 -9q12 -8 12 -36q0 -6 7 -17q1 -3 2 -5q8 -15 24 -15q17 0 26 5t9 30
q0 10 1 30v28q0 43 -8 84q-6 29 -22 29q-13 0 -21 -11q-13 -16 -28 -31q-26 -27 -67 -27q-7 0 -24 -1h-21q-27 0 -27 28q-1 25 0 77v39q0 14 -6 29q-1 2 -2 5q-8 16 -8 42q0 33 33 33q7 0 25 -3q14 -2 23 -2t30 3q11 2 16 2q32 0 62 -30q14 -14 35 -44q1 -2 6 -9
q10 -15 24 -15q21 0 27 25q6 26 6 39q0 21 -13 35q-4 4 -6 14q0 4 -1 6q-5 18 -9.5 21.5t-23.5 4.5q-13 0 -37 1q-48 0 -73 2q-42 4 -62 4q-37 0 -66 -4q-5 -1 -23 -3q-40 -4 -62 -4q-39 0 -67 9q-16 4 -25 4q-35 0 -35 -23q0 -14 9 -19q12 -7 34 -11q7 -1 24 -4
q14 -3 21 -4q12 -3 14 -13q1 -6 5 -18q5 -19 5 -31q0 -5 -3 -16q-4 -15 -4 -29q0 -8 1 -25q1 -26 0 -41q-1 -21 -8 -38q-2 -6 -2 -9q0 -2 4 -11q8 -15 8 -30q0 -19 -2 -34q-1 -5 -1 -8q-2 -14 -3 -44q-3 -44 -7 -66q-6 -32 -6 -48q0 -19 6 -37q6 -20 -2 -34t-23 -23
q-8 -5 -29 -14q-5 -3 -8 -4q-4 -2 -12 -5q-12 -5 -22 -10q-14 -6 -14 -16q0 -14 36 -17q63 -3 148 -3q9 0 28 4q16 3 25 3q44 1 133 1q18 0 61 -3q36 -3 54 -3q58 0 76 54q18 52 18 89q0 23 -28 23zM252 914q-5 0 -12 -5q-3 -3 -6 -4q-1 -1 -4 -3q-7 -4 -10 -7l-5 -5l-3 -3
q-3 -3 -9 -12q-3 -3 -4 -5l-7 -7q-4 -4 -6 -7q-9 -12 2 -19q4 -2 15 -9q20 -14 35 -20q5 -2 9 -3q2 -1 3 -2q1 0 4 -2q1 -2 2 -3q3 -1 17 -8q11 -6 14 -7q18 -10 34 -21q5 -3 9 -6q11 -7 17 -7q4 0 13 7q6 5 11 7q2 1 8 7l3 3q1 1 3 2t2 2q1 0 1 1q1 1 1 3t-9 11
q-4 3 -13 14q-3 4 -11 14q-10 13 -21 25q-22 31 -52 54q-17 15 -22 15h-9z" />
    <glyph glyph-name="Eacute" unicode="&#xc9;" horiz-adv-x="642" 
d="M581 159q-20 0 -29 -14q-9 -13 -19 -35q-12 -23 -31 -36q-58 -38 -83 -38q-11 0 -41 3q-24 3 -35 3q-38 0 -62 29q-18 24 -12 58q7 33 9 76q1 20 -11 54l-3 9q-6 18 7 29q25 20 109 16q21 0 34 -9q12 -8 12 -36q0 -6 7 -17q1 -3 2 -5q8 -15 24 -15q17 0 26 5t9 30
q0 10 1 30v28q0 43 -8 84q-6 29 -22 29q-13 0 -21 -11q-13 -16 -28 -31q-26 -27 -67 -27q-7 0 -24 -1h-21q-27 0 -27 28q-1 25 0 77v39q0 14 -6 29q-1 2 -2 5q-8 16 -8 42q0 33 33 33q7 0 25 -3q14 -2 23 -2t30 3q11 2 16 2q32 0 62 -30q14 -14 35 -44q1 -2 6 -9
q10 -15 24 -15q21 0 27 25q6 26 6 39q0 21 -13 35q-4 4 -6 14q0 4 -1 6q-5 18 -9.5 21.5t-23.5 4.5q-13 0 -37 1q-48 0 -73 2q-42 4 -62 4q-37 0 -66 -4q-5 -1 -23 -3q-40 -4 -62 -4q-39 0 -67 9q-16 4 -25 4q-35 0 -35 -23q0 -14 9 -19q12 -7 34 -11q7 -1 24 -4
q14 -3 21 -4q12 -3 14 -13q1 -6 5 -18q5 -19 5 -31q0 -5 -3 -16q-4 -15 -4 -29q0 -8 1 -25q1 -26 0 -41q-1 -21 -8 -38q-2 -6 -2 -9q0 -2 4 -11q8 -15 8 -30q0 -19 -2 -34q-1 -5 -1 -8q-2 -14 -3 -44q-3 -44 -7 -66q-6 -32 -6 -48q0 -19 6 -37q6 -20 -2 -34t-23 -23
q-8 -5 -29 -14q-5 -3 -8 -4q-4 -2 -12 -5q-12 -5 -22 -10q-14 -6 -14 -16q0 -14 36 -17q63 -3 148 -3q9 0 28 4q16 3 25 3q44 1 133 1q18 0 61 -3q36 -3 54 -3q58 0 76 54q18 52 18 89q0 23 -28 23zM352 896q-7 -5 -22 -22q-13 -15 -22 -23q-3 -3 -11 -10q-17 -13 -24 -21
q-10 -11 -15 -17l-7 -7q-4 -5 -4 -7q-1 -3 3 -8q1 -2 2 -3q1 -2 4 -7l6 -9q7 -9 10 -10q1 0 5 1q2 1 7 4q5 2 8 4q1 0 3 1t3 2h2l4 2q1 2 24 11q3 1 5 1q5 2 17 8q3 2 6 3q7 3 22 9q20 7 35 16q14 8 39 20q5 3 8 4q9 4 3 12q-4 4 -13 15q-4 7 -8 11q-14 16 -28 24
q-12 7 -23 7q-24 0 -39 -11z" />
    <glyph glyph-name="Ecircumflex" unicode="&#xca;" horiz-adv-x="642" 
d="M581 159q-20 0 -29 -14q-9 -13 -19 -35q-12 -23 -31 -36q-58 -38 -83 -38q-11 0 -41 3q-24 3 -35 3q-38 0 -62 29q-18 24 -12 58q7 33 9 76q1 20 -11 54l-3 9q-6 18 7 29q25 20 109 16q21 0 34 -9q12 -8 12 -36q0 -6 7 -17q1 -3 2 -5q8 -15 24 -15q17 0 26 5t9 30
q0 10 1 30v28q0 43 -8 84q-6 29 -22 29q-13 0 -21 -11q-13 -16 -28 -31q-26 -27 -67 -27q-7 0 -24 -1h-21q-27 0 -27 28q-1 25 0 77v39q0 14 -6 29q-1 2 -2 5q-8 16 -8 42q0 33 33 33q7 0 25 -3q14 -2 23 -2t30 3q11 2 16 2q32 0 62 -30q14 -14 35 -44q1 -2 6 -9
q10 -15 24 -15q21 0 27 25q6 26 6 39q0 21 -13 35q-4 4 -6 14q0 4 -1 6q-5 18 -9.5 21.5t-23.5 4.5q-13 0 -37 1q-48 0 -73 2q-42 4 -62 4q-37 0 -66 -4q-5 -1 -23 -3q-40 -4 -62 -4q-39 0 -67 9q-16 4 -25 4q-35 0 -35 -23q0 -14 9 -19q12 -7 34 -11q7 -1 24 -4
q14 -3 21 -4q12 -3 14 -13q1 -6 5 -18q5 -19 5 -31q0 -5 -3 -16q-4 -15 -4 -29q0 -8 1 -25q1 -26 0 -41q-1 -21 -8 -38q-2 -6 -2 -9q0 -2 4 -11q8 -15 8 -30q0 -19 -2 -34q-1 -5 -1 -8q-2 -14 -3 -44q-3 -44 -7 -66q-6 -32 -6 -48q0 -19 6 -37q6 -20 -2 -34t-23 -23
q-8 -5 -29 -14q-5 -3 -8 -4q-4 -2 -12 -5q-12 -5 -22 -10q-14 -6 -14 -16q0 -14 36 -17q63 -3 148 -3q9 0 28 4q16 3 25 3q44 1 133 1q18 0 61 -3q36 -3 54 -3q58 0 76 54q18 52 18 89q0 23 -28 23zM414 753q1 0 5 2q5 3 10 5q6 3 18 11q5 4 8 6q11 7 11 11t-4 8
q-11 11 -27 22q-14 9 -22 17q-10 10 -18 20t-21 22q-2 1 -8 6q-8 6 -10 8q-10 10 -18 10q-16 0 -50 -23q-2 -1 -5 -4q-5 -4 -10 -9q-1 0 -8 -4q-5 -4 -6 -4q-2 -2 -9 -8q-8 -8 -14 -11q-8 -5 -15 -12q-3 -2 -5 -4q-28 -23 -40 -33l-1 -1q-1 0 -1 -1q-1 -1 -1 -3v-1
q0 -5 5 -7l2 -1q1 0 1 -1q28 -11 46 -11q5 0 24 11q7 4 12 7q4 2 11 7q4 4 7 5q3 2 10 6q9 6 14 9q2 1 7 5q4 2 5 3t3 2q2 2 3 2q2 0 7 -5l2 -2q7 -7 30 -26l12 -9q7 -6 19 -13q7 -3 11 -6q8 -6 10 -6z" />
    <glyph glyph-name="Edieresis" unicode="&#xcb;" horiz-adv-x="642" 
d="M581 159q-20 0 -29 -14q-9 -13 -19 -35q-12 -23 -31 -36q-58 -38 -83 -38q-11 0 -41 3q-24 3 -35 3q-38 0 -62 29q-18 24 -12 58q7 33 9 76q1 20 -11 54l-3 9q-6 18 7 29q25 20 109 16q21 0 34 -9q12 -8 12 -36q0 -6 7 -17q1 -3 2 -5q8 -15 24 -15q17 0 26 5t9 30
q0 10 1 30v28q0 43 -8 84q-6 29 -22 29q-13 0 -21 -11q-13 -16 -28 -31q-26 -27 -67 -27q-7 0 -24 -1h-21q-27 0 -27 28q-1 25 0 77v39q0 14 -6 29q-1 2 -2 5q-8 16 -8 42q0 33 33 33q7 0 25 -3q14 -2 23 -2t30 3q11 2 16 2q32 0 62 -30q14 -14 35 -44q1 -2 6 -9
q10 -15 24 -15q21 0 27 25q6 26 6 39q0 21 -13 35q-4 4 -6 14q0 4 -1 6q-5 18 -9.5 21.5t-23.5 4.5q-13 0 -37 1q-48 0 -73 2q-42 4 -62 4q-37 0 -66 -4q-5 -1 -23 -3q-40 -4 -62 -4q-39 0 -67 9q-16 4 -25 4q-35 0 -35 -23q0 -14 9 -19q12 -7 34 -11q7 -1 24 -4
q14 -3 21 -4q12 -3 14 -13q1 -6 5 -18q5 -19 5 -31q0 -5 -3 -16q-4 -15 -4 -29q0 -8 1 -25q1 -26 0 -41q-1 -21 -8 -38q-2 -6 -2 -9q0 -2 4 -11q8 -15 8 -30q0 -19 -2 -34q-1 -5 -1 -8q-2 -14 -3 -44q-3 -44 -7 -66q-6 -32 -6 -48q0 -19 6 -37q6 -20 -2 -34t-23 -23
q-8 -5 -29 -14q-5 -3 -8 -4q-4 -2 -12 -5q-12 -5 -22 -10q-14 -6 -14 -16q0 -14 36 -17q63 -3 148 -3q9 0 28 4q16 3 25 3q44 1 133 1q18 0 61 -3q36 -3 54 -3q58 0 76 54q18 52 18 89q0 23 -28 23zM280 790q11 13 11 34q0 25 -28 38q-14 7 -43 6h-5q-20 0 -29 -6
q-3 -3 -10 -7q-18 -13 -18 -28q0 -17 13 -37q6 -12 22 -17q4 -1 14 -4q14 -5 24 -5q27 0 49 26zM411 872q-10 0 -27 -4q-5 -1 -8 -2q-10 -1 -17 -12q-11 -16 -11 -31q0 -14 12 -25q28 -29 57 -29q23 0 42 14q22 17 22 48q1 15 -13 25q-2 1 -11 4q-3 1 -4 1t-5 4q-4 3 -7 4
q-15 3 -30 3z" />
    <glyph glyph-name="Igrave" unicode="&#xcc;" horiz-adv-x="399" 
d="M262 127q0 9 -6 20q-4 7 -4 13q0 9 2 17q3 11 3 37q0 7 -1 31v30q0 9 3 22q3 10 3 17q0 29 -9 68q-5 21 -5 32q0 9 9 29q7 17 7 26q0 11 -9 35q-7 19 -7 30q0 10 12 38q2 5 5 18q3 10 5 15q5 12 26 20q5 2 18 3q10 0 15 2q36 12 36 25q0 18 -57 18q-19 0 -63 2
q-36 1 -50 1q-11 0 -47 5q-19 3 -25 3q-22 0 -42 -5q-7 -2 -12 -3q-34 -5 -34 -21q0 -13 18 -19q35 -11 52 -15q24 -5 28.5 -10.5t4.5 -28.5q1 -17 -5 -49q-4 -24 -4 -35q0 -16 10 -38q5 -12 5 -19q0 -13 -8 -50q-7 -29 -7 -47q0 -36 4 -50q1 -2 4 -10q5 -12 5 -17
q0 -13 -4 -39q-2 -13 -8 -36q-5 -23 -5 -28q0 -12 3 -34q2 -18 2 -32q-1 -42 -45 -50q-2 0 -11 -1q-34 -3 -34 -22q0 -14 49 -20q9 -1 37 -5q32 -5 39 -5q5 0 22 6q14 5 21 5q18 0 63 -6q35 -4 56 -4q36 0 36 23q0 19 -26 29l-24 8q-34 12 -43 18t-8 45v8zM133 914
q-6 0 -13 -5q-3 -3 -6 -4l-3 -3q-7 -4 -10 -7q-2 -1 -5 -5q-2 -2 -4 -3q-3 -3 -9 -12q-2 -3 -4 -5t-6 -7q-5 -4 -7 -7q-8 -12 2 -19q4 -2 16 -9q20 -14 35 -20q4 -2 9 -3q2 -1 3 -2q1 0 3 -2l3 -3q3 -1 17 -8q11 -6 14 -7q18 -10 34 -21q4 -3 9 -6q11 -7 16 -7t13 7
q6 5 12 7q2 1 8 7q2 3 3 3l2 2q2 1 3 2l1 1q1 1 1 3t-9 11q-4 3 -14 14q-3 4 -10 14q-11 13 -21 25q-22 31 -53 54q-17 15 -22 15h-8z" />
    <glyph glyph-name="Iacute" unicode="&#xcd;" horiz-adv-x="399" 
d="M262 127q0 9 -6 20q-4 7 -4 13q0 9 2 17q3 11 3 37q0 7 -1 31v30q0 9 3 22q3 10 3 17q0 29 -9 68q-5 21 -5 32q0 9 9 29q7 17 7 26q0 11 -9 35q-7 19 -7 30q0 10 12 38q2 5 5 18q3 10 5 15q5 12 26 20q5 2 18 3q10 0 15 2q36 12 36 25q0 18 -57 18q-19 0 -63 2
q-36 1 -50 1q-11 0 -47 5q-19 3 -25 3q-22 0 -42 -5q-7 -2 -12 -3q-34 -5 -34 -21q0 -13 18 -19q35 -11 52 -15q24 -5 28.5 -10.5t4.5 -28.5q1 -17 -5 -49q-4 -24 -4 -35q0 -16 10 -38q5 -12 5 -19q0 -13 -8 -50q-7 -29 -7 -47q0 -36 4 -50q1 -2 4 -10q5 -12 5 -17
q0 -13 -4 -39q-2 -13 -8 -36q-5 -23 -5 -28q0 -12 3 -34q2 -18 2 -32q-1 -42 -45 -50q-2 0 -11 -1q-34 -3 -34 -22q0 -14 49 -20q9 -1 37 -5q32 -5 39 -5q5 0 22 6q14 5 21 5q18 0 63 -6q35 -4 56 -4q36 0 36 23q0 19 -26 29l-24 8q-34 12 -43 18t-8 45v8zM232 896
q-7 -5 -21 -22q-14 -15 -22 -23q-4 -3 -12 -10q-16 -13 -23 -21q-11 -11 -16 -17l-6 -7q-4 -5 -5 -7q0 -3 3 -8l3 -3q1 -2 3 -7l6 -9q7 -9 11 -10q1 0 4 1t8 4q4 2 7 4q1 0 4 1l2 2h3q2 1 3 2q2 2 25 11q3 1 4 1q6 2 17 8l6 3q8 3 22 9q21 7 35 16q14 8 40 20q5 3 7 4
q10 4 3 12q-4 4 -12 15q-5 7 -8 11q-15 16 -28 24q-12 7 -24 7q-23 0 -39 -11z" />
    <glyph glyph-name="Icircumflex" unicode="&#xce;" horiz-adv-x="399" 
d="M262 127q0 9 -6 20q-4 7 -4 13q0 9 2 17q3 11 3 37q0 7 -1 31v30q0 9 3 22q3 10 3 17q0 29 -9 68q-5 21 -5 32q0 9 9 29q7 17 7 26q0 11 -9 35q-7 19 -7 30q0 10 12 38q2 5 5 18q3 10 5 15q5 12 26 20q5 2 18 3q10 0 15 2q36 12 36 25q0 18 -57 18q-19 0 -63 2
q-36 1 -50 1q-11 0 -47 5q-19 3 -25 3q-22 0 -42 -5q-7 -2 -12 -3q-34 -5 -34 -21q0 -13 18 -19q35 -11 52 -15q24 -5 28.5 -10.5t4.5 -28.5q1 -17 -5 -49q-4 -24 -4 -35q0 -16 10 -38q5 -12 5 -19q0 -13 -8 -50q-7 -29 -7 -47q0 -36 4 -50q1 -2 4 -10q5 -12 5 -17
q0 -13 -4 -39q-2 -13 -8 -36q-5 -23 -5 -28q0 -12 3 -34q2 -18 2 -32q-1 -42 -45 -50q-2 0 -11 -1q-34 -3 -34 -22q0 -14 49 -20q9 -1 37 -5q32 -5 39 -5q5 0 22 6q14 5 21 5q18 0 63 -6q35 -4 56 -4q36 0 36 23q0 19 -26 29l-24 8q-34 12 -43 18t-8 45v8zM294 753q2 0 6 2
q4 3 9 5q7 3 18 11q6 4 8 6q12 7 12 11t-5 8q-11 11 -27 22q-13 9 -22 17q-10 10 -17 20q-8 10 -22 22q-2 1 -7 6q-8 6 -11 8q-9 10 -18 10q-16 0 -50 -23q-2 -1 -5 -4q-4 -4 -10 -9q-1 0 -7 -4q-5 -4 -6 -4q-3 -2 -9 -8q-9 -8 -15 -11q-8 -5 -15 -12l-4 -4q-29 -23 -40 -33
q-1 0 -1 -1q-1 0 -2 -1v-3v-1q0 -5 4 -7q1 0 2 -1q1 0 2 -1q28 -11 45 -11q6 0 24 11q7 4 13 7q3 2 10 7q5 4 7 5q3 2 10 6q10 6 14 9q3 1 8 5q3 2 5 3l2 2q2 2 3 2q2 0 7 -5l2 -2q8 -7 31 -26l12 -9q6 -6 19 -13q6 -3 10 -6q8 -6 10 -6z" />
    <glyph glyph-name="Idieresis" unicode="&#xcf;" horiz-adv-x="399" 
d="M262 127q0 9 -6 20q-4 7 -4 13q0 9 2 17q3 11 3 37q0 7 -1 31v30q0 9 3 22q3 10 3 17q0 29 -9 68q-5 21 -5 32q0 9 9 29q7 17 7 26q0 11 -9 35q-7 19 -7 30q0 10 12 38q2 5 5 18q3 10 5 15q5 12 26 20q5 2 18 3q10 0 15 2q36 12 36 25q0 18 -57 18q-19 0 -63 2
q-36 1 -50 1q-11 0 -47 5q-19 3 -25 3q-22 0 -42 -5q-7 -2 -12 -3q-34 -5 -34 -21q0 -13 18 -19q35 -11 52 -15q24 -5 28.5 -10.5t4.5 -28.5q1 -17 -5 -49q-4 -24 -4 -35q0 -16 10 -38q5 -12 5 -19q0 -13 -8 -50q-7 -29 -7 -47q0 -36 4 -50q1 -2 4 -10q5 -12 5 -17
q0 -13 -4 -39q-2 -13 -8 -36q-5 -23 -5 -28q0 -12 3 -34q2 -18 2 -32q-1 -42 -45 -50q-2 0 -11 -1q-34 -3 -34 -22q0 -14 49 -20q9 -1 37 -5q32 -5 39 -5q5 0 22 6q14 5 21 5q18 0 63 -6q35 -4 56 -4q36 0 36 23q0 19 -26 29l-24 8q-34 12 -43 18t-8 45v8zM160 790
q11 13 11 34q0 25 -27 38q-15 7 -44 6h-5q-19 0 -28 -6q-4 -3 -10 -7q-19 -13 -19 -28q0 -17 13 -37q7 -12 22 -17q4 -1 15 -4q13 -5 24 -5q26 0 48 26zM291 872q-9 0 -26 -4q-6 -1 -9 -2q-10 -1 -17 -12q-10 -16 -10 -31q0 -14 11 -25q28 -29 58 -29q22 0 41 14
q23 17 23 48q0 15 -13 25q-2 1 -12 4q-2 1 -3 1q-2 0 -6 4q-4 3 -7 4q-15 3 -30 3z" />
    <glyph glyph-name="Eth" unicode="&#xd0;" horiz-adv-x="781" 
d="M136 371h-27h-12q-6 0 -19 -1q-9 0 -13 1l-8 2q-16 3 -21 -13q-1 -5 0 -26q1 -10 2 -19q0 -12 40 -11q12 1 42 1h15v-4v-5q0 -6 3 -19q5 -22 5 -60q0 -25 -13 -65q-5 -14 -5 -20q0 -10 6 -20q5 -9 5 -20q0 -39 -47 -39q-3 0 -13 2q-13 3 -16 2q-23 -2 -23 -22
q0 -34 26 -34q19 0 58 2q18 1 29 1q15 1 51 0h19q5 0 17 -2q10 -2 16 -2q22 0 70 -3q40 -3 62 -3q23 0 57 13l18 6q56 17 103 28q25 7 43 31q18 22 33 30q29 15 61 73q4 8 7 13q13 22 25 72q1 8 7 30q13 55 13 86q0 29 -23 92q-7 21 -35 64l-10 15q-10 19 -23 29
q-77 67 -174 92q-10 2 -34 6q-25 4 -38 9q-23 8 -42 8q-10 0 -22 -3q-15 -4 -46 -4q-27 0 -41 -2q-45 -8 -95 -8q-26 0 -70 7q-16 3 -21 3q-14 0 -26 -7q-13 -8 -13 -18q0 -6 8 -9q13 -6 39 -19q39 -21 47 -54q4 -16 2 -59q-1 -15 -1 -23q0 -15 2 -33q1 -16 1 -26
q0 -18 -1 -33v-30v-2zM262 306h12q15 -1 23 -1h12q31 -1 32 12q1 47 -11 54q-5 4 -27 1h-4q-10 -1 -32 0h-11q3 24 3 34q0 3 -1 16q-3 22 -2 38q2 47 13 114q6 35 20.5 47t52.5 12q143 0 237 -136q10 -13 13 -34t13 -58q11 -37 12 -65q0 -3 1 -24q2 -61 -18 -83
q-8 -8 -16 -29q-4 -9 -7 -14q-2 -4 -8 -12q-9 -12 -12 -19q-14 -29 -38 -42q-7 -4 -12 -7q-15 -8 -26 -20q-12 -12 -29 -18q-78 -27 -98 -27q-53 0 -71 49q-15 39 -15 64q1 46 -9 65q-2 4 -7 11q-4 6 -4 10q0 8 8 19q2 3 3 5q8 10 8 22q0 8 -5 16z" />
    <glyph glyph-name="Ntilde" unicode="&#xd1;" horiz-adv-x="865" 
d="M225 494q0 9 6 9q8 0 18 -8q4 -3 6 -14q1 -7 3 -12t15 -16q6 -5 9 -8q21 -24 39 -32q15 -6 18 -13q11 -23 35 -54q8 -11 30 -40q14 -20 17 -23q3 -4 13 -12q16 -13 30 -26q51 -49 78 -97q4 -8 13 -15q46 -30 75 -86q23 -44 79 -44q20 0 24 24q6 35 6 70v27q1 50 -1 76
q0 6 -6 21q-4 12 -4 19t7 22q5 13 5 20v17q-1 32 0 43q2 42 2 73q0 17 -6 47q-2 11 -2 14t3 13q6 19 6 39q0 8 -3 27q-1 9 -1 14q-1 26 16 45q31 31 61 31q20 0 20 16q0 18 -21 25q-16 6 -47 6q-11 0 -32 -6q-6 -1 -9 -2q-45 -8 -118 -14q-17 -2 -17 -10q0 -10 18 -20
q6 -4 10 -7q2 -1 9 -9q26 -23 31 -38q5 -18 3 -60v-10q0 -9 6 -22q4 -7 4 -11q0 -9 -5 -23q-5 -11 -5 -18q0 -10 2 -30q2 -16 2 -23q0 -15 -6 -50q-5 -29 -5 -47t4 -34q5 -25 5 -33q0 -16 -8 -16q-6 0 -46 47q-6 7 -8 9q-7 8 -26 27q-25 25 -37 41q-3 4 -8 16t-9 18
q-17 26 -28 34q-6 5 -19 10q-6 2 -8 4q-19 22 -25 30q-11 14 -30 36q-8 10 -15 18q-36 46 -68 77q-4 4 -22 18q-7 6 -10 9q-6 5 -11 19q-2 6 -3 7q-4 4 -10 6q-4 1 -6 3q-3 2 -11 7q-6 5 -9 7t-7 6q-8 9 -18 12q-36 10 -70 10q-23 0 -53 -3q-21 -1 -37 -1q-30 0 -30 -17
q0 -9 11 -13q11 -5 36 -8q2 0 7 -1q25 -2 34 -10q6 -5 12 -22q13 -37 17 -72q10 -85 7 -158q-1 -30 -8 -67q-1 -8 -1 -9q0 -4 2 -11q2 -6 2 -10v-24q0 -54 -22 -74l-3 -3q-7 -6 -7 -12q0 -7 14 -11t14 -15q0 -34 -19 -55q-13 -13 -35 -19q-24 -7 -39 -16q-15 -10 -15 -21
t17 -21q8 -4 28 -4h166q18 0 42 5q10 2 16 3q31 5 31 24q0 18 -22 20q-4 0 -13 1q-22 1 -33 3q-21 4 -26 10t-13 34q0 1 -1 6q-4 15 -4 23q0 5 -1 20q-3 38 2 57q6 31 1 74q-5 24 -6 49q0 21 1 64q1 63 0 98zM346 760q5 5 7 12l4 8q13 20 25 20q11 0 21 -3q4 -2 7 -2
q6 -2 19 -4q7 -1 11 -2q3 -1 12 -3q15 -4 23 -4q11 0 26 10q11 6 30 27q2 3 8 8q5 3 7 6q5 6 13 19q6 8 8 11q7 9 0 14q-4 4 -11 12q-2 3 -4 5q-9 8 -15 3q-3 -2 -9 -10q-3 -4 -6 -6q-24 -22 -38 -22q-23 0 -43 5q-7 2 -20 5q-25 6 -31 6q-14 0 -29 -7q-9 -4 -16 -13
q-5 -6 -14 -16q-3 -4 -7 -14q-2 -5 -3 -7q-2 -4 -7 -12q-10 -18 -18 -42q-1 -2 -1 -5q0 -4 10 -4q3 0 11 -1h6q19 0 24 6z" />
    <glyph glyph-name="Ograve" unicode="&#xd2;" horiz-adv-x="776" 
d="M731 459q-21 80 -144 171q-35 27 -65 34q-73 17 -131 17q-46 0 -142 -23q-31 -8 -65 -35q-53 -40 -89 -86q-42 -52 -52 -91q-13 -45 -13 -101q0 -60 22 -127q6 -16 8 -24q25 -88 76 -122q5 -3 24 -17q38 -26 63 -40q68 -36 130 -36q7 0 14 1q9 2 27 2q15 0 36 -1h18
q22 0 52 14q10 4 33 15q32 15 50 21q36 14 60 49q2 2 5 9q5 8 9 11q37 27 53 65q12 29 17 57q2 10 8 37q10 52 11 100q0 38 -15 100zM564 130q-48 -73 -77 -84q-30 -12 -89 -12q-58 0 -118 46q-74 56 -102 191q-12 66 -12 96q0 55 12 106q14 56 41 79q10 9 32 28
q32 28 49 42q20 16 35 16q6 0 15 -3q12 -4 29 -4q56 0 112 -44q5 -4 21 -15q28 -19 36 -35q35 -67 54 -134q13 -48 13 -97q0 -100 -51 -176zM321 914q-6 0 -13 -5q-3 -3 -6 -4l-3 -3q-7 -4 -10 -7q-2 -1 -5 -5q-2 -2 -4 -3q-3 -3 -9 -12q-2 -3 -4 -5t-6 -7q-5 -4 -7 -7
q-8 -12 2 -19q4 -2 16 -9q20 -14 35 -20q4 -2 9 -3q2 -1 3 -2q1 0 3 -2l3 -3q3 -1 17 -8q11 -6 14 -7q18 -10 34 -21q4 -3 9 -6q11 -7 16 -7t13 7q6 5 12 7q2 1 8 7q2 3 3 3l2 2q2 1 3 2l1 1q1 1 1 3t-9 11q-4 3 -14 14q-3 4 -10 14q-11 13 -21 25q-22 31 -53 54
q-17 15 -22 15h-8z" />
    <glyph glyph-name="Oacute" unicode="&#xd3;" horiz-adv-x="776" 
d="M731 459q-21 80 -144 171q-35 27 -65 34q-73 17 -131 17q-46 0 -142 -23q-31 -8 -65 -35q-53 -40 -89 -86q-42 -52 -52 -91q-13 -45 -13 -101q0 -60 22 -127q6 -16 8 -24q25 -88 76 -122q5 -3 24 -17q38 -26 63 -40q68 -36 130 -36q7 0 14 1q9 2 27 2q15 0 36 -1h18
q22 0 52 14q10 4 33 15q32 15 50 21q36 14 60 49q2 2 5 9q5 8 9 11q37 27 53 65q12 29 17 57q2 10 8 37q10 52 11 100q0 38 -15 100zM564 130q-48 -73 -77 -84q-30 -12 -89 -12q-58 0 -118 46q-74 56 -102 191q-12 66 -12 96q0 55 12 106q14 56 41 79q10 9 32 28
q32 28 49 42q20 16 35 16q6 0 15 -3q12 -4 29 -4q56 0 112 -44q5 -4 21 -15q28 -19 36 -35q35 -67 54 -134q13 -48 13 -97q0 -100 -51 -176zM420 896q-7 -5 -21 -22q-14 -15 -22 -23q-4 -3 -12 -10q-16 -13 -23 -21q-11 -11 -16 -17l-6 -7q-4 -5 -5 -7q0 -3 3 -8l3 -3
q1 -2 3 -7l6 -9q7 -9 11 -10q1 0 4 1t8 4q4 2 7 4q1 0 4 1l2 2h3q2 1 3 2q2 2 25 11q3 1 4 1q6 2 17 8l6 3q8 3 22 9q21 7 35 16q14 8 40 20q5 3 7 4q10 4 3 12q-4 4 -12 15q-5 7 -8 11q-15 16 -28 24q-12 7 -24 7q-23 0 -39 -11z" />
    <glyph glyph-name="Ocircumflex" unicode="&#xd4;" horiz-adv-x="776" 
d="M731 459q-21 80 -144 171q-35 27 -65 34q-73 17 -131 17q-46 0 -142 -23q-31 -8 -65 -35q-53 -40 -89 -86q-42 -52 -52 -91q-13 -45 -13 -101q0 -60 22 -127q6 -16 8 -24q25 -88 76 -122q5 -3 24 -17q38 -26 63 -40q68 -36 130 -36q7 0 14 1q9 2 27 2q15 0 36 -1h18
q22 0 52 14q10 4 33 15q32 15 50 21q36 14 60 49q2 2 5 9q5 8 9 11q37 27 53 65q12 29 17 57q2 10 8 37q10 52 11 100q0 38 -15 100zM564 130q-48 -73 -77 -84q-30 -12 -89 -12q-58 0 -118 46q-74 56 -102 191q-12 66 -12 96q0 55 12 106q14 56 41 79q10 9 32 28
q32 28 49 42q20 16 35 16q6 0 15 -3q12 -4 29 -4q56 0 112 -44q5 -4 21 -15q28 -19 36 -35q35 -67 54 -134q13 -48 13 -97q0 -100 -51 -176zM482 753q2 0 6 2q4 3 9 5q7 3 18 11q6 4 8 6q12 7 12 11t-5 8q-11 11 -27 22q-13 9 -22 17q-10 10 -17 20q-8 10 -22 22q-2 1 -7 6
q-8 6 -11 8q-9 10 -18 10q-16 0 -50 -23q-2 -1 -5 -4q-4 -4 -10 -9q-1 0 -7 -4q-5 -4 -6 -4q-3 -2 -9 -8q-9 -8 -15 -11q-8 -5 -15 -12l-4 -4q-29 -23 -40 -33q-1 0 -1 -1q-1 0 -2 -1v-3v-1q0 -5 4 -7q1 0 2 -1q1 0 2 -1q28 -11 45 -11q6 0 24 11q7 4 13 7q3 2 10 7q5 4 7 5
q3 2 10 6q10 6 14 9q3 1 8 5q3 2 5 3l2 2q2 2 3 2q2 0 7 -5l2 -2q8 -7 31 -26l12 -9q6 -6 19 -13q6 -3 10 -6q8 -6 10 -6z" />
    <glyph glyph-name="Otilde" unicode="&#xd5;" horiz-adv-x="776" 
d="M731 459q-21 80 -144 171q-35 27 -65 34q-73 17 -131 17q-46 0 -142 -23q-31 -8 -65 -35q-53 -40 -89 -86q-42 -52 -52 -91q-13 -45 -13 -101q0 -60 22 -127q6 -16 8 -24q25 -88 76 -122q5 -3 24 -17q38 -26 63 -40q68 -36 130 -36q7 0 14 1q9 2 27 2q15 0 36 -1h18
q22 0 52 14q10 4 33 15q32 15 50 21q36 14 60 49q2 2 5 9q5 8 9 11q37 27 53 65q12 29 17 57q2 10 8 37q10 52 11 100q0 38 -15 100zM564 130q-48 -73 -77 -84q-30 -12 -89 -12q-58 0 -118 46q-74 56 -102 191q-12 66 -12 96q0 55 12 106q14 56 41 79q10 9 32 28
q32 28 49 42q20 16 35 16q6 0 15 -3q12 -4 29 -4q56 0 112 -44q5 -4 21 -15q28 -19 36 -35q35 -67 54 -134q13 -48 13 -97q0 -100 -51 -176zM300 760q4 5 7 12q1 4 4 8q13 20 24 20q12 0 21 -3q4 -2 8 -2q6 -2 18 -4q7 -1 11 -2l12 -3q15 -4 23 -4q12 0 27 10q10 6 29 27
q3 3 9 8q4 3 7 6q4 6 13 19q5 8 8 11q7 9 0 14q-5 4 -11 12l-5 5q-8 8 -15 3q-3 -2 -8 -10l-6 -6q-25 -22 -39 -22q-23 0 -42 5l-20 5q-25 6 -32 6q-14 0 -28 -7q-10 -4 -17 -13q-4 -6 -13 -16q-4 -4 -7 -14q-2 -5 -3 -7q-2 -4 -7 -12q-11 -18 -18 -42q-1 -2 -1 -5
q0 -4 9 -4q4 0 11 -1h6q20 0 25 6z" />
    <glyph glyph-name="Odieresis" unicode="&#xd6;" horiz-adv-x="776" 
d="M731 459q-21 80 -144 171q-35 27 -65 34q-73 17 -131 17q-46 0 -142 -23q-31 -8 -65 -35q-53 -40 -89 -86q-42 -52 -52 -91q-13 -45 -13 -101q0 -60 22 -127q6 -16 8 -24q25 -88 76 -122q5 -3 24 -17q38 -26 63 -40q68 -36 130 -36q7 0 14 1q9 2 27 2q15 0 36 -1h18
q22 0 52 14q10 4 33 15q32 15 50 21q36 14 60 49q2 2 5 9q5 8 9 11q37 27 53 65q12 29 17 57q2 10 8 37q10 52 11 100q0 38 -15 100zM564 130q-48 -73 -77 -84q-30 -12 -89 -12q-58 0 -118 46q-74 56 -102 191q-12 66 -12 96q0 55 12 106q14 56 41 79q10 9 32 28
q32 28 49 42q20 16 35 16q6 0 15 -3q12 -4 29 -4q56 0 112 -44q5 -4 21 -15q28 -19 36 -35q35 -67 54 -134q13 -48 13 -97q0 -100 -51 -176zM348 790q11 13 11 34q0 25 -27 38q-15 7 -44 6h-5q-19 0 -28 -6q-4 -3 -10 -7q-19 -13 -19 -28q0 -17 13 -37q7 -12 22 -17
q4 -1 15 -4q13 -5 24 -5q26 0 48 26zM479 872q-9 0 -26 -4q-6 -1 -9 -2q-10 -1 -17 -12q-10 -16 -10 -31q0 -14 11 -25q28 -29 58 -29q22 0 41 14q23 17 23 48q0 15 -13 25q-2 1 -12 4q-2 1 -3 1q-2 0 -6 4q-4 3 -7 4q-15 3 -30 3z" />
    <glyph glyph-name="multiply" unicode="&#xd7;" 
d="M434 45q8 0 24 12q5 4 7 5t4 3q8 8 8 15q-1 8 -8 19q-6 10 -24 24q-8 7 -13 12q-6 5 -11 12q-16 20 -37 42q-9 9 -25 23q-9 8 -12 12q-11 10 -11 15q0 4 8 12q4 4 14 16q16 16 21 20q7 6 11 9l23 23q14 15 31 30q7 6 19 16q19 16 19 21q0 3 -9 11q-1 1 -2 1q-3 4 -11 10
q-7 5 -10 8q-1 1 -5 6q-7 9 -11 9q-8 0 -11 -3q-5 -5 -12 -15q-9 -12 -24 -22q-3 -2 -19 -19l-6 -6q-3 -3 -9 -10q-11 -14 -20 -19q-3 -1 -10 -12q-6 -9 -11 -14q-2 -1 -5 -5q-13 -11 -18 -11q-15 0 -38 22q-2 1 -4 3q-7 7 -18 23q-3 4 -5 7q-6 8 -14 15q-7 8 -25 28
q-23 26 -40 40q-6 4 -15 4q-10 0 -17 -9q-4 -4 -15 -16q-14 -16 -14 -19q-1 -7 29 -37l10 -10q8 -8 11 -12q3 -2 21 -19q33 -30 48 -45q6 -5 13 -10q5 -3 6 -5q2 -4 2 -9q0 -13 -7 -21q-6 -8 -29 -28q-15 -13 -23 -21l-3 -3l-1 -1q-4 -5 -13 -16q-23 -28 -37 -35
q-10 -4 -20 -14l-2 -2q0 -1 -3 -3q-10 -7 -10 -13t9 -16q4 -3 11 -14q16 -22 24 -22q9 0 24 13q2 1 2 2q7 5 18 17q3 2 4 4q5 4 11 11q4 5 9 10l8 8q7 8 11 12q10 10 27 31q9 12 16 19q3 2 6 7q7 8 19 8q10 0 21 -10q3 -3 4 -5q4 -3 13 -8q6 -4 9 -7q4 -5 12 -14q4 -6 7 -8
q3 -4 22 -21q29 -27 40 -38q0 -1 2 -2q2 -2 2 -3l2 -2l2 -2q14 -14 23 -14z" />
    <glyph glyph-name="Oslash" unicode="&#xd8;" horiz-adv-x="776" 
d="M599 621l-12 9q-35 27 -65 34q-73 17 -131 17q-46 0 -142 -23q-31 -8 -65 -35q-53 -40 -89 -86q-42 -52 -52 -91l-13 -101q0 -60 22 -127q6 -16 8 -24q20 -69 49 -100q-11 -11 -19 -21q-5 -7 -27 -27q-18 -16 -23 -24q-8 -13 -8 -24q0 -15 19 -15q18 0 39 4l18 4
q15 2 35 27l6 9q12 15 18 23l11 -7q28 -19 45 -28q68 -36 130 -36q7 0 14 1q9 2 27 2q15 0 36 -1h18q22 0 52 14q10 4 33 15q32 15 50 21q36 14 60 49q2 2 5 9q5 8 9 11q37 27 53 65q12 29 17 57q2 10 8 37q10 52 11 100q0 38 -15 100q-17 56 -78 115q2 1 4 4q12 16 39 37
q16 13 22 21q25 27 25 41q0 11 -36 10q-6 -1 -10 -1q-26 0 -59 -32q-3 -3 -5 -6q-10 -9 -34 -27zM537 552q0 -1 -2 -3q-10 -13 -16 -19q-25 -17 -60 -57q-16 -19 -29 -32q-58 -55 -80 -84q-12 -17 -20 -20q-11 -4 -23 -21q-7 -11 -12 -14q-10 -7 -24 -30q-8 -14 -13 -19
q-9 -8 -28 -27q-20 -20 -32 -31q-10 30 -20 76q-12 66 -12 96q0 55 12 106q14 56 41 79q10 9 32 28q32 28 49 42q20 16 35 16q6 0 15 -3q12 -4 29 -4q56 0 112 -44q5 -4 19 -13q19 -13 27 -22zM235 126l1 1q54 46 93 100q39 55 111 129q14 14 44 40q44 38 62 61l24 32
q23 -57 32 -86q13 -48 13 -97q0 -100 -51 -176q-48 -73 -77 -84q-30 -12 -89 -12q-58 0 -118 46q-26 21 -45 46z" />
    <glyph glyph-name="Ugrave" unicode="&#xd9;" horiz-adv-x="807" 
d="M589 37q5 6 17 17q33 32 43 51q26 50 26 96q0 5 -2 20q-2 19 -2 28q0 17 -1 49q-1 25 -1 42q0 10 13 21q12 11 8 38q-8 43 -3 69q9 43 0 73q-18 68 28 85q7 3 27 7q32 6 32 26q0 25 -21 25q-7 0 -21 -4q-7 -1 -11 -2t-15 -4q-13 -4 -23 -4q-6 0 -19 3q-23 5 -58 4
q-37 0 -80 -5q-35 -5 -35 -19q0 -12 18 -17q5 -1 19 -6q20 -8 29 -9q35 -5 34 -28q-1 -13 8 -38q3 -11 4 -17q1 -9 -3 -26q-2 -11 -2 -19q0 -3 3 -10q4 -8 4 -18v-53q0 -26 -8 -73q-6 -38 -6 -61q0 -3 3 -11q4 -9 4 -19q0 -11 -4 -31q-1 -11 -2 -16q-12 -89 -99 -139
q-30 -18 -51 -18q-36 0 -85 17q-56 19 -87 81q-17 35 -18 91v13q0 10 -3 22q-3 10 -3 20q0 12 3 29q6 29 5 68q0 9 -2 31q-1 17 -1 29q0 6 -4 21t-2 23q9 36 5 91q-1 27 26 37q7 2 23 7q13 5 20 7q28 11 28 24q0 9 -21 22q-14 8 -33 8q-13 0 -30 -7q-2 -1 -3 -1
q-28 -9 -67 -9q-30 0 -72 7q-7 1 -23 5q-22 5 -34 5q-31 0 -31 -29q0 -34 42 -38q34 -3 42 -12q5 -5 9 -25q1 -6 2 -10q5 -20 5 -36q0 -61 -8 -128q-2 -16 -2 -40q0 -10 3 -36q3 -27 3 -50q0 -9 -4 -29q-2 -7 -2 -9q0 -3 2 -9q3 -8 3 -15q0 -61 24 -110q17 -34 42 -51
q101 -75 184 -75q38 0 62 6q13 3 48 7q30 3 44 6q28 6 57 35zM336 914q-5 0 -12 -5q-3 -3 -6 -4q-1 -1 -4 -3q-7 -4 -10 -7l-5 -5l-3 -3q-3 -3 -9 -12q-3 -3 -4 -5l-7 -7q-4 -4 -6 -7q-9 -12 2 -19q4 -2 15 -9q20 -14 35 -20q5 -2 9 -3q2 -1 3 -2q1 0 4 -2q1 -2 2 -3
q3 -1 17 -8q11 -6 14 -7q18 -10 34 -21q5 -3 9 -6q11 -7 17 -7q4 0 13 7q6 5 11 7q2 1 8 7l3 3q1 1 3 2t2 2q1 0 1 1q1 1 1 3t-9 11q-4 3 -13 14q-3 4 -11 14q-10 13 -21 25q-22 31 -52 54q-17 15 -22 15h-9z" />
    <glyph glyph-name="Uacute" unicode="&#xda;" horiz-adv-x="807" 
d="M589 37q5 6 17 17q33 32 43 51q26 50 26 96q0 5 -2 20q-2 19 -2 28q0 17 -1 49q-1 25 -1 42q0 10 13 21q12 11 8 38q-8 43 -3 69q9 43 0 73q-18 68 28 85q7 3 27 7q32 6 32 26q0 25 -21 25q-7 0 -21 -4q-7 -1 -11 -2t-15 -4q-13 -4 -23 -4q-6 0 -19 3q-23 5 -58 4
q-37 0 -80 -5q-35 -5 -35 -19q0 -12 18 -17q5 -1 19 -6q20 -8 29 -9q35 -5 34 -28q-1 -13 8 -38q3 -11 4 -17q1 -9 -3 -26q-2 -11 -2 -19q0 -3 3 -10q4 -8 4 -18v-53q0 -26 -8 -73q-6 -38 -6 -61q0 -3 3 -11q4 -9 4 -19q0 -11 -4 -31q-1 -11 -2 -16q-12 -89 -99 -139
q-30 -18 -51 -18q-36 0 -85 17q-56 19 -87 81q-17 35 -18 91v13q0 10 -3 22q-3 10 -3 20q0 12 3 29q6 29 5 68q0 9 -2 31q-1 17 -1 29q0 6 -4 21t-2 23q9 36 5 91q-1 27 26 37q7 2 23 7q13 5 20 7q28 11 28 24q0 9 -21 22q-14 8 -33 8q-13 0 -30 -7q-2 -1 -3 -1
q-28 -9 -67 -9q-30 0 -72 7q-7 1 -23 5q-22 5 -34 5q-31 0 -31 -29q0 -34 42 -38q34 -3 42 -12q5 -5 9 -25q1 -6 2 -10q5 -20 5 -36q0 -61 -8 -128q-2 -16 -2 -40q0 -10 3 -36q3 -27 3 -50q0 -9 -4 -29q-2 -7 -2 -9q0 -3 2 -9q3 -8 3 -15q0 -61 24 -110q17 -34 42 -51
q101 -75 184 -75q38 0 62 6q13 3 48 7q30 3 44 6q28 6 57 35zM436 896q-7 -5 -22 -22q-13 -15 -22 -23q-3 -3 -11 -10q-17 -13 -24 -21q-10 -11 -15 -17l-7 -7q-4 -5 -4 -7q-1 -3 3 -8q1 -2 2 -3q1 -2 4 -7l6 -9q7 -9 10 -10q1 0 5 1q2 1 7 4q5 2 8 4q1 0 3 1t3 2h2l4 2
q1 2 24 11q3 1 5 1q5 2 17 8q3 2 6 3q7 3 22 9q20 7 35 16q14 8 39 20q5 3 8 4q9 4 3 12q-4 4 -13 15q-4 7 -8 11q-14 16 -28 24q-12 7 -23 7q-24 0 -39 -11z" />
    <glyph glyph-name="Ucircumflex" unicode="&#xdb;" horiz-adv-x="807" 
d="M589 37q5 6 17 17q33 32 43 51q26 50 26 96q0 5 -2 20q-2 19 -2 28q0 17 -1 49q-1 25 -1 42q0 10 13 21q12 11 8 38q-8 43 -3 69q9 43 0 73q-18 68 28 85q7 3 27 7q32 6 32 26q0 25 -21 25q-7 0 -21 -4q-7 -1 -11 -2t-15 -4q-13 -4 -23 -4q-6 0 -19 3q-23 5 -58 4
q-37 0 -80 -5q-35 -5 -35 -19q0 -12 18 -17q5 -1 19 -6q20 -8 29 -9q35 -5 34 -28q-1 -13 8 -38q3 -11 4 -17q1 -9 -3 -26q-2 -11 -2 -19q0 -3 3 -10q4 -8 4 -18v-53q0 -26 -8 -73q-6 -38 -6 -61q0 -3 3 -11q4 -9 4 -19q0 -11 -4 -31q-1 -11 -2 -16q-12 -89 -99 -139
q-30 -18 -51 -18q-36 0 -85 17q-56 19 -87 81q-17 35 -18 91v13q0 10 -3 22q-3 10 -3 20q0 12 3 29q6 29 5 68q0 9 -2 31q-1 17 -1 29q0 6 -4 21t-2 23q9 36 5 91q-1 27 26 37q7 2 23 7q13 5 20 7q28 11 28 24q0 9 -21 22q-14 8 -33 8q-13 0 -30 -7q-2 -1 -3 -1
q-28 -9 -67 -9q-30 0 -72 7q-7 1 -23 5q-22 5 -34 5q-31 0 -31 -29q0 -34 42 -38q34 -3 42 -12q5 -5 9 -25q1 -6 2 -10q5 -20 5 -36q0 -61 -8 -128q-2 -16 -2 -40q0 -10 3 -36q3 -27 3 -50q0 -9 -4 -29q-2 -7 -2 -9q0 -3 2 -9q3 -8 3 -15q0 -61 24 -110q17 -34 42 -51
q101 -75 184 -75q38 0 62 6q13 3 48 7q30 3 44 6q28 6 57 35zM498 753q1 0 5 2q5 3 10 5q6 3 18 11q5 4 8 6q11 7 11 11t-4 8q-11 11 -27 22q-14 9 -22 17q-10 10 -18 20t-21 22q-2 1 -8 6q-8 6 -10 8q-10 10 -18 10q-16 0 -50 -23q-2 -1 -5 -4q-5 -4 -10 -9q-1 0 -8 -4
q-5 -4 -6 -4q-2 -2 -9 -8q-8 -8 -14 -11q-8 -5 -15 -12q-3 -2 -5 -4q-28 -23 -40 -33l-1 -1q-1 0 -1 -1q-1 -1 -1 -3v-1q0 -5 5 -7l2 -1q1 0 1 -1q28 -11 46 -11q5 0 24 11q7 4 12 7q4 2 11 7q4 4 7 5q3 2 10 6q9 6 14 9q2 1 7 5q4 2 5 3t3 2q2 2 3 2q2 0 7 -5l2 -2
q7 -7 30 -26l12 -9q7 -6 19 -13q7 -3 11 -6q8 -6 10 -6z" />
    <glyph glyph-name="Udieresis" unicode="&#xdc;" horiz-adv-x="807" 
d="M589 37q5 6 17 17q33 32 43 51q26 50 26 96q0 5 -2 20q-2 19 -2 28q0 17 -1 49q-1 25 -1 42q0 10 13 21q12 11 8 38q-8 43 -3 69q9 43 0 73q-18 68 28 85q7 3 27 7q32 6 32 26q0 25 -21 25q-7 0 -21 -4q-7 -1 -11 -2t-15 -4q-13 -4 -23 -4q-6 0 -19 3q-23 5 -58 4
q-37 0 -80 -5q-35 -5 -35 -19q0 -12 18 -17q5 -1 19 -6q20 -8 29 -9q35 -5 34 -28q-1 -13 8 -38q3 -11 4 -17q1 -9 -3 -26q-2 -11 -2 -19q0 -3 3 -10q4 -8 4 -18v-53q0 -26 -8 -73q-6 -38 -6 -61q0 -3 3 -11q4 -9 4 -19q0 -11 -4 -31q-1 -11 -2 -16q-12 -89 -99 -139
q-30 -18 -51 -18q-36 0 -85 17q-56 19 -87 81q-17 35 -18 91v13q0 10 -3 22q-3 10 -3 20q0 12 3 29q6 29 5 68q0 9 -2 31q-1 17 -1 29q0 6 -4 21t-2 23q9 36 5 91q-1 27 26 37q7 2 23 7q13 5 20 7q28 11 28 24q0 9 -21 22q-14 8 -33 8q-13 0 -30 -7q-2 -1 -3 -1
q-28 -9 -67 -9q-30 0 -72 7q-7 1 -23 5q-22 5 -34 5q-31 0 -31 -29q0 -34 42 -38q34 -3 42 -12q5 -5 9 -25q1 -6 2 -10q5 -20 5 -36q0 -61 -8 -128q-2 -16 -2 -40q0 -10 3 -36q3 -27 3 -50q0 -9 -4 -29q-2 -7 -2 -9q0 -3 2 -9q3 -8 3 -15q0 -61 24 -110q17 -34 42 -51
q101 -75 184 -75q38 0 62 6q13 3 48 7q30 3 44 6q28 6 57 35zM364 790q11 13 11 34q0 25 -28 38q-14 7 -43 6h-5q-20 0 -29 -6q-3 -3 -10 -7q-18 -13 -18 -28q0 -17 13 -37q6 -12 22 -17q4 -1 14 -4q14 -5 24 -5q27 0 49 26zM495 872q-10 0 -27 -4q-5 -1 -8 -2
q-10 -1 -17 -12q-11 -16 -11 -31q0 -14 12 -25q28 -29 57 -29q23 0 42 14q22 17 22 48q1 15 -13 25q-2 1 -11 4q-3 1 -4 1t-5 4q-4 3 -7 4q-15 3 -30 3z" />
    <glyph glyph-name="Yacute" unicode="&#xdd;" horiz-adv-x="750" 
d="M538 16q0 17 -39 28q-5 1 -8 2q-51 17 -51 71v29q1 26 1 39t-6 31q-3 10 -3 15q0 16 5 55q4 33 4 54q0 23 14 37q8 9 22 28q7 9 11 14q3 4 10 14q12 18 21 24q37 24 55 76q14 36 44 59q14 10 48 31l24 16q5 3 17 8q4 1 6 2q9 5 9 17q0 15 -19 15q-10 0 -20 -1
q-6 -2 -16 -1q-18 1 -54 0h-19q-29 0 -64 7q-12 2 -17 2q-41 0 -41 -29q0 -22 23 -26q32 -5 40 -14q7 -7 -13 -43q-1 -1 -3 -4q-1 -2 -2 -3q-44 -75 -108 -152q-9 -10 -15 -10q-5 0 -12 10q-3 5 -6 16q-2 7 -4 11q-2 5 -6 17q-13 38 -36 54q-15 10 -29 35q-2 3 -3 5
q-6 9 -16 29q-2 3 -7 11q-9 15 -9 21q0 12 13 12q4 0 13 -1q5 -1 8 -1q23 0 23 29q0 18 -20 24q-30 10 -55 10q-18 0 -31 -4q-19 -5 -45 -5q-5 0 -18 1q-15 2 -23 2q-17 0 -56 -4q-9 -1 -14 -1q-14 -2 -21 -7q-10 -7 -10 -17q0 -11 12 -16q5 -2 21 -2q31 0 53 -31
q14 -19 46 -61q20 -27 31 -42q16 -22 25 -32q4 -5 13 -16q58 -70 70 -117q24 -92 16 -142q-3 -19 -2 -64q1 -14 1 -23q2 -29 -23 -41q-8 -4 -28 -12q-17 -6 -25 -10q-23 -11 -23 -25t14 -20q13 -5 23 -5q58 0 87 3q10 1 30 4q41 5 61 5q10 0 37 -7q22 -6 33 -6q36 0 36 22z
M408 896q-7 -5 -21 -22q-14 -15 -22 -23q-4 -3 -12 -10q-16 -13 -23 -21q-11 -11 -16 -17l-6 -7q-4 -5 -5 -7q0 -3 3 -8l3 -3q1 -2 3 -7l6 -9q7 -9 11 -10q1 0 4 1t8 4q4 2 7 4q1 0 4 1l2 2h3q2 1 3 2q2 2 25 11q3 1 4 1q6 2 17 8l6 3q8 3 22 9q21 7 35 16q14 8 40 20
q5 3 7 4q10 4 3 12q-4 4 -12 15q-5 7 -8 11q-15 16 -28 24q-12 7 -24 7q-23 0 -39 -11z" />
    <glyph glyph-name="Thorn" unicode="&#xde;" horiz-adv-x="594" 
d="M136 670q-5 0 -17 1q-10 1 -18 1q-45 -1 -45 -19l-1 -10q0 -10 16 -14q3 -1 10 -3q12 -3 19 -5q54 -17 54 -72q1 -11 -5 -31q-6 -18 -6 -28q0 -7 -3 -14q-2 -4 -2 -7q0 -1 1 -6q2 -8 1 -14q-1 -15 -1 -38v-9q0 -9 1 -21q1 -6 1 -9q4 -41 5 -58q2 -19 1 -58v-39
q0 -19 7 -47q4 -19 -2 -37q-2 -4 -10 -15q-9 -12 -9 -16q0 -5 3 -16q5 -15 1 -23q-4 -7 -28 -13q-9 -3 -32 -5q-19 -3 -32 -7t-13 -19q0 -10 11 -17q7 -4 31 -4q5 0 14 2q7 2 11 2q14 0 44 -4q24 -3 37 -3q5 0 8 2q3 1 9 1q7 0 46 2q71 5 104 5h6q19 -2 19 10q0 16 -13 23
q-7 4 -22 8q-6 1 -9 2t-11 2q-11 2 -17 4q-38 12 -29 48q7 36 -6 60q-9 18 -3 32q3 9 3 30q1 7 1 11q0 5 -1 18q-1 24 3 36q6 19 3 63q-1 11 -1 16q-1 10 2 28q1 8 1 11t-4 15q-3 10 -3 15q0 6 -1 19q-1 14 2 24q4 13 5 25q8 4 17 4q6 0 25 -6q12 -3 17 -3q88 -11 99 -100
q6 -52 8 -78v-5q0 -12 -4 -19q-21 -38 -45 -75q-7 -10 -20 -12q-18 -4 -55 -7q-5 -1 -9 -1q-1 0 -5 -1q-19 -3 -19 -13q0 -19 10 -26q19 -14 54 -14q20 0 65 13q20 7 32 9q58 12 80 66q0 1 1 3q6 13 12 17q31 20 31 66q0 12 -1 39v22q0 54 -36 89q-78 76 -126 83
q-16 2 -35 6t-40 4q-19 -1 -56 -5q0 31 6 44q5 12 26 20q5 2 17 3q11 0 16 2q36 12 36 25q0 18 -57 18q-23 -1 -57 1q-34 3 -45 2q-13 0 -41 -3q-22 -3 -37 -3z" />
    <glyph glyph-name="germandbls" unicode="&#xdf;" horiz-adv-x="525" 
d="M86 416q0 -21 -16 -23q-3 -1 -10 -3q-9 -3 -18 -5t-10 -8q-1 -4 -2 -11q-2 -10 -2 -13q0 -7 2 -8q6 -2 13 -3q3 -1 13 -1q4 -1 7 -1q20 -1 20 -24q0 -115 -1 -166q-1 -13 -1 -23q-2 -42 -6 -65v-5q0 -10 -6 -15q-2 -2 -10 -5q-2 0 -4 -1q-8 -2 -14 -3q-2 0 -6 -1
q-9 0 -15 -2q-5 -1 -5 -14q0 -18 15 -18q3 0 20 1q48 2 80 2h43h26q21 0 22 9q0 4 1 9q1 9 1 11q0 6 -7 8q-3 1 -8 2q-6 1 -8 2q-7 5 -5 20q0 1 1 8q2 20 2 35q-1 4 0 12q0 14 -1 22l-7 101q-1 7 2 100q1 33 1 37q0 3 -1 35q-1 26 -1 29q0 31 5 68q2 14 4 26q1 12 8 37
q3 11 4 16q8 42 23 61q18 24 46 24q14 0 55 -18q18 -8 31 -32l4 -8q16 -30 16 -65q0 -29 -8 -57q-7 -28 -20 -43q-21 -22 -33 -32q-3 -2 -14 -8h-1q-4 -2 -8 -9q-1 -3 -2 -3q-4 -3 -11 -5q-5 -3 -10 -5q-30 -20 -30 -34q0 -5 2 -17q1 -10 1 -15q0 -23 19 -37q7 -5 25 -16
q27 -18 43 -30q14 -11 21 -22q2 -4 4 -6q25 -28 38 -76q2 -10 2 -21q0 -37 -10 -46q-19 -16 -44 -16q-13 0 -29 5q-3 1 -10 5q-13 7 -21 9q-1 0 -5 2q-7 2 -9 2q-6 -1 -11 -10q-6 -11 -11 -35v-2q-4 -17 -4 -22q0 -6 7 -10q11 -7 34 -6h5q26 0 40 4q12 4 32 19q7 5 11 7
q5 4 21 14q21 13 33 20q2 1 7 4q26 14 32 28q2 7 9 14q3 3 3 4q5 10 7 18q1 5 3 16q6 24 6 41q0 48 -29 89q-3 4 -13 12q-9 7 -12 10q-4 6 -15 16q-4 3 -5 4q-7 9 -18 24q-10 15 -21 25q-20 19 -20 31q0 14 27 38q11 8 23 28q10 18 25 32q37 37 37 93q0 10 -11 31
q-7 12 -9 20q-8 39 -26 51q-35 25 -79 31q-16 3 -34 3q-17 0 -50 -7q-16 -3 -26 -4q-19 -2 -58 -35q-8 -7 -14 -11q-7 -6 -19 -23q-6 -7 -9 -11q-3 -3 -12 -11q-15 -14 -21 -25q-26 -53 -26 -161v-13z" />
    <glyph glyph-name="agrave" unicode="&#xe0;" horiz-adv-x="466" 
d="M445 52q0 8 -14 8q-3 0 -9 -1q-8 -2 -14 -2h-3q-13 0 -19 6q-1 1 -3 2q-6 5 -6 9q0 11 -3 27q-4 24 -4 37q-1 42 -1 110q0 9 4 13q1 1 1 3q0 25 -3 38q-1 5 -3 16q-3 20 -6 31q-1 2 -1 7q0 3 -1 6q-1 2 -2 7q-5 15 -10 21q-31 45 -88 45q-16 0 -31 -4q-39 -10 -68 -23
q-3 -2 -8 -5q-7 -5 -15 -8q-27 -11 -58 -42q-8 -8 -14 -22q-4 -10 -10 -17q-9 -12 -9 -22v-1q0 -3 6 -11q10 -12 14 -12q20 0 59 13q2 1 8 2q8 1 10 4q11 19 11 45q1 29 6 34q7 7 21 7q43 0 57 -14q11 -10 20 -39q2 -5 2 -16q0 -4 3 -11q1 -3 1 -5q0 -18 -3 -42
q-2 -13 -15 -17q-23 -8 -40 -15q-8 -4 -16 -6l-30 -10l-27 -9q-28 -9 -62 -33q-35 -27 -35 -71q1 -20 18 -46q23 -36 80 -36q14 0 29 3q10 3 17 3q18 2 40 9q12 4 22 7q3 1 8 3t8 2q11 0 18 -9q1 -2 2 -3q19 -22 49 -22q40 0 59 6q29 11 47 26q11 9 11 24zM258 107
q0 -26 -6 -31q-22 -17 -53 -17q-15 0 -32 8q-3 1 -4 2q-6 3 -9 13q-8 19 -8 26v3q-1 17 17 28l21 12q21 12 32 18q24 10 33 10q6 0 7 -25q2 -34 2 -47zM174 678q-6 0 -13 -6l-6 -4q-1 -1 -3 -2q-7 -5 -10 -7q-2 -2 -5 -6q-2 -2 -4 -3q-3 -3 -9 -11q-2 -4 -4 -6l-6 -6l-7 -7
q-8 -13 2 -19q4 -3 16 -10q20 -13 35 -20q4 -2 9 -3q2 -1 3 -1l3 -3t3 -2q3 -2 17 -9q11 -6 14 -7q18 -10 34 -21q4 -3 9 -6q11 -7 16 -7t13 7q6 5 12 7q2 1 8 8q2 2 3 2l2 2q2 1 3 2q0 1 1 1q1 1 1 3q0 3 -9 11q-4 3 -14 15q-3 4 -10 14q-11 13 -21 24q-22 31 -53 54
q-17 16 -22 16h-8z" />
    <glyph glyph-name="aacute" unicode="&#xe1;" horiz-adv-x="466" 
d="M445 52q0 8 -14 8q-3 0 -9 -1q-8 -2 -14 -2h-3q-13 0 -19 6q-1 1 -3 2q-6 5 -6 9q0 11 -3 27q-4 24 -4 37q-1 42 -1 110q0 9 4 13q1 1 1 3q0 25 -3 38q-1 5 -3 16q-3 20 -6 31q-1 2 -1 7q0 3 -1 6q-1 2 -2 7q-5 15 -10 21q-31 45 -88 45q-16 0 -31 -4q-39 -10 -68 -23
q-3 -2 -8 -5q-7 -5 -15 -8q-27 -11 -58 -42q-8 -8 -14 -22q-4 -10 -10 -17q-9 -12 -9 -22v-1q0 -3 6 -11q10 -12 14 -12q20 0 59 13q2 1 8 2q8 1 10 4q11 19 11 45q1 29 6 34q7 7 21 7q43 0 57 -14q11 -10 20 -39q2 -5 2 -16q0 -4 3 -11q1 -3 1 -5q0 -18 -3 -42
q-2 -13 -15 -17q-23 -8 -40 -15q-8 -4 -16 -6l-30 -10l-27 -9q-28 -9 -62 -33q-35 -27 -35 -71q1 -20 18 -46q23 -36 80 -36q14 0 29 3q10 3 17 3q18 2 40 9q12 4 22 7q3 1 8 3t8 2q11 0 18 -9q1 -2 2 -3q19 -22 49 -22q40 0 59 6q29 11 47 26q11 9 11 24zM258 107
q0 -26 -6 -31q-22 -17 -53 -17q-15 0 -32 8q-3 1 -4 2q-6 3 -9 13q-8 19 -8 26v3q-1 17 17 28l21 12q21 12 32 18q24 10 33 10q6 0 7 -25q2 -34 2 -47zM273 663q-7 -5 -21 -22q-14 -16 -22 -23q-4 -3 -12 -10q-16 -13 -23 -21q-11 -11 -16 -17l-6 -7q-4 -5 -5 -7q0 -3 3 -8
q2 -2 3 -4l3 -6q4 -7 6 -9q7 -10 11 -10q1 0 4 1t8 4q4 2 7 3q1 1 4 2q1 1 2 1q1 1 3 1t3 2q2 1 25 10q3 1 4 2q6 2 17 7l6 3q8 4 22 9q21 8 35 16q14 9 40 21q5 2 7 3q10 5 3 12q-4 4 -12 16q-5 7 -8 10q-15 17 -28 25q-12 6 -24 6q-23 0 -39 -10z" />
    <glyph glyph-name="acircumflex" unicode="&#xe2;" horiz-adv-x="466" 
d="M445 52q0 8 -14 8q-3 0 -9 -1q-8 -2 -14 -2h-3q-13 0 -19 6q-1 1 -3 2q-6 5 -6 9q0 11 -3 27q-4 24 -4 37q-1 42 -1 110q0 9 4 13q1 1 1 3q0 25 -3 38q-1 5 -3 16q-3 20 -6 31q-1 2 -1 7q0 3 -1 6q-1 2 -2 7q-5 15 -10 21q-31 45 -88 45q-16 0 -31 -4q-39 -10 -68 -23
q-3 -2 -8 -5q-7 -5 -15 -8q-27 -11 -58 -42q-8 -8 -14 -22q-4 -10 -10 -17q-9 -12 -9 -22v-1q0 -3 6 -11q10 -12 14 -12q20 0 59 13q2 1 8 2q8 1 10 4q11 19 11 45q1 29 6 34q7 7 21 7q43 0 57 -14q11 -10 20 -39q2 -5 2 -16q0 -4 3 -11q1 -3 1 -5q0 -18 -3 -42
q-2 -13 -15 -17q-23 -8 -40 -15q-8 -4 -16 -6l-30 -10l-27 -9q-28 -9 -62 -33q-35 -27 -35 -71q1 -20 18 -46q23 -36 80 -36q14 0 29 3q10 3 17 3q18 2 40 9q12 4 22 7q3 1 8 3t8 2q11 0 18 -9q1 -2 2 -3q19 -22 49 -22q40 0 59 6q29 11 47 26q11 9 11 24zM258 107
q0 -26 -6 -31q-22 -17 -53 -17q-15 0 -32 8q-3 1 -4 2q-6 3 -9 13q-8 19 -8 26v3q-1 17 17 28l21 12q21 12 32 18q24 10 33 10q6 0 7 -25q2 -34 2 -47zM335 520q2 0 6 2q4 3 9 5q7 2 18 11q6 4 8 5q12 7 12 12q0 3 -5 7q-11 12 -27 22q-13 9 -22 18q-10 9 -17 20
q-8 10 -22 21q-2 2 -7 6q-8 6 -11 9q-9 10 -18 10q-16 0 -50 -23q-2 -2 -5 -4q-4 -5 -10 -9q-1 -1 -7 -5q-5 -3 -6 -4q-3 -2 -9 -8q-9 -7 -15 -11q-8 -4 -15 -11q-2 -3 -4 -4q-29 -24 -40 -33l-1 -1q-1 -1 -2 -1v-4q0 -6 4 -8h2q1 -1 2 -1q28 -11 45 -11q6 0 24 11q7 4 13 7
q3 2 10 7q5 3 7 5q3 2 10 6q10 6 14 8q3 2 8 5q3 3 5 4q1 0 2 2q2 2 3 2q2 0 7 -5l2 -2q8 -7 31 -26q8 -6 12 -10q6 -5 19 -12q6 -4 10 -6q8 -6 10 -6z" />
    <glyph glyph-name="atilde" unicode="&#xe3;" horiz-adv-x="466" 
d="M445 52q0 8 -14 8q-3 0 -9 -1q-8 -2 -14 -2h-3q-13 0 -19 6q-1 1 -3 2q-6 5 -6 9q0 11 -3 27q-4 24 -4 37q-1 42 -1 110q0 9 4 13q1 1 1 3q0 25 -3 38q-1 5 -3 16q-3 20 -6 31q-1 2 -1 7q0 3 -1 6q-1 2 -2 7q-5 15 -10 21q-31 45 -88 45q-16 0 -31 -4q-39 -10 -68 -23
q-3 -2 -8 -5q-7 -5 -15 -8q-27 -11 -58 -42q-8 -8 -14 -22q-4 -10 -10 -17q-9 -12 -9 -22v-1q0 -3 6 -11q10 -12 14 -12q20 0 59 13q2 1 8 2q8 1 10 4q11 19 11 45q1 29 6 34q7 7 21 7q43 0 57 -14q11 -10 20 -39q2 -5 2 -16q0 -4 3 -11q1 -3 1 -5q0 -18 -3 -42
q-2 -13 -15 -17q-23 -8 -40 -15q-8 -4 -16 -6l-30 -10l-27 -9q-28 -9 -62 -33q-35 -27 -35 -71q1 -20 18 -46q23 -36 80 -36q14 0 29 3q10 3 17 3q18 2 40 9q12 4 22 7q3 1 8 3t8 2q11 0 18 -9q1 -2 2 -3q19 -22 49 -22q40 0 59 6q29 11 47 26q11 9 11 24zM258 107
q0 -26 -6 -31q-22 -17 -53 -17q-15 0 -32 8q-3 1 -4 2q-6 3 -9 13q-8 19 -8 26v3q-1 17 17 28l21 12q21 12 32 18q24 10 33 10q6 0 7 -25q2 -34 2 -47zM153 527q4 5 7 11q1 5 4 9q13 20 24 20q12 0 21 -3q4 -2 8 -3l18 -3q7 -1 11 -2l12 -3q15 -4 23 -4q12 0 27 9
q10 7 29 28q3 3 9 7l7 7q4 5 13 18q5 8 8 12q7 9 0 14q-5 4 -11 11l-5 5q-8 9 -15 4q-3 -2 -8 -10l-6 -6q-25 -22 -39 -22q-23 0 -42 5q-8 1 -20 5q-25 6 -32 6q-14 0 -28 -7q-10 -5 -17 -13q-4 -6 -13 -16q-4 -4 -7 -15l-3 -6q-2 -4 -7 -12q-11 -19 -18 -42q-1 -3 -1 -5
q0 -4 9 -4q4 0 11 -1h6q20 0 25 6z" />
    <glyph glyph-name="adieresis" unicode="&#xe4;" horiz-adv-x="466" 
d="M445 52q0 8 -14 8q-3 0 -9 -1q-8 -2 -14 -2h-3q-13 0 -19 6q-1 1 -3 2q-6 5 -6 9q0 11 -3 27q-4 24 -4 37q-1 42 -1 110q0 9 4 13q1 1 1 3q0 25 -3 38q-1 5 -3 16q-3 20 -6 31q-1 2 -1 7q0 3 -1 6q-1 2 -2 7q-5 15 -10 21q-31 45 -88 45q-16 0 -31 -4q-39 -10 -68 -23
q-3 -2 -8 -5q-7 -5 -15 -8q-27 -11 -58 -42q-8 -8 -14 -22q-4 -10 -10 -17q-9 -12 -9 -22v-1q0 -3 6 -11q10 -12 14 -12q20 0 59 13q2 1 8 2q8 1 10 4q11 19 11 45q1 29 6 34q7 7 21 7q43 0 57 -14q11 -10 20 -39q2 -5 2 -16q0 -4 3 -11q1 -3 1 -5q0 -18 -3 -42
q-2 -13 -15 -17q-23 -8 -40 -15q-8 -4 -16 -6l-30 -10l-27 -9q-28 -9 -62 -33q-35 -27 -35 -71q1 -20 18 -46q23 -36 80 -36q14 0 29 3q10 3 17 3q18 2 40 9q12 4 22 7q3 1 8 3t8 2q11 0 18 -9q1 -2 2 -3q19 -22 49 -22q40 0 59 6q29 11 47 26q11 9 11 24zM258 107
q0 -26 -6 -31q-22 -17 -53 -17q-15 0 -32 8q-3 1 -4 2q-6 3 -9 13q-8 19 -8 26v3q-1 17 17 28l21 12q21 12 32 18q24 10 33 10q6 0 7 -25q2 -34 2 -47zM201 557q11 13 11 33q0 26 -27 39q-15 6 -44 6h-5q-19 0 -28 -7q-4 -2 -10 -6q-19 -13 -19 -28q0 -18 13 -37
q7 -12 22 -17q4 -1 15 -5q13 -4 24 -4q26 0 48 26zM332 639q-9 0 -26 -4q-6 -2 -9 -2q-10 -2 -17 -12q-10 -16 -10 -31q0 -14 11 -26q28 -29 58 -29q22 0 41 14q23 17 23 49q0 15 -13 24q-2 2 -12 4q-2 1 -3 1q-2 1 -6 4q-4 4 -7 5q-15 3 -30 3z" />
    <glyph glyph-name="aring" unicode="&#xe5;" horiz-adv-x="466" 
d="M445 52q0 8 -14 8q-3 0 -9 -1q-8 -2 -14 -2h-3q-13 0 -19 6q-1 1 -3 2q-6 5 -6 9q0 11 -3 27q-4 24 -4 37q-1 42 -1 110q0 9 4 13q1 1 1 3q0 25 -3 38q-1 5 -3 16q-3 20 -6 31q-1 2 -1 7q0 3 -1 6q-1 2 -2 7q-5 15 -10 21q-31 45 -88 45q-16 0 -31 -4q-39 -10 -68 -23
q-3 -2 -8 -5q-7 -5 -15 -8q-27 -11 -58 -42q-8 -8 -14 -22q-4 -10 -10 -17q-9 -12 -9 -22v-1q0 -3 6 -11q10 -12 14 -12q20 0 59 13q2 1 8 2q8 1 10 4q11 19 11 45q1 29 6 34q7 7 21 7q43 0 57 -14q11 -10 20 -39q2 -5 2 -16q0 -4 3 -11q1 -3 1 -5q0 -18 -3 -42
q-2 -13 -15 -17q-23 -8 -40 -15q-8 -4 -16 -6l-30 -10l-27 -9q-28 -9 -62 -33q-35 -27 -35 -71q1 -20 18 -46q23 -36 80 -36q14 0 29 3q10 3 17 3q18 2 40 9q12 4 22 7q3 1 8 3t8 2q11 0 18 -9q1 -2 2 -3q19 -22 49 -22q40 0 59 6q29 11 47 26q11 9 11 24zM258 107
q0 -26 -6 -31q-22 -17 -53 -17q-15 0 -32 8q-3 1 -4 2q-6 3 -9 13q-8 19 -8 26v3q-1 17 17 28l21 12q21 12 32 18q24 10 33 10q6 0 7 -25q2 -34 2 -47zM211 679q-12 -4 -18 -8q-6 -3 -11 -6q-7 -6 -19 -20q-2 -3 -9 -8q-5 -4 -7 -6q-2 -4 -4 -15q0 -3 -1 -6q-2 -11 -2 -23
v-6q0 -9 5 -25q2 -4 2 -6q2 -6 11 -15q6 -6 8 -10q5 -12 25 -21q14 -7 43 -7q6 0 22 5q8 3 15 5q5 1 11 5q3 2 5 3q20 11 30 20q11 9 15 18q11 22 11 45q0 19 -15 49q-6 13 -27 22q-5 2 -13 10q-6 5 -11 6q-13 4 -28 4t-38 -10zM240 643q6 0 17 -3q3 -1 5 -1q7 -2 15 -12
q0 -1 2 -2q3 -4 4 -7q6 -9 6 -17v-7q1 -4 1 -6q0 -13 -5 -29q-1 -6 -13 -11q-3 -1 -4 -2q-9 -4 -19 -4q-12 1 -33 11q-11 5 -19 27q-2 6 -2 20v3q0 10 2 13q2 2 5 8q5 8 9 10q16 9 28 9h1z" />
    </font>
</defs>
</svg>
